<?xml version="1.0" standalone="no"?>
<!DOCTYPE svg PUBLIC "-//W3C//DTD SVG 1.1//EN" "http://www.w3.org/Graphics/SVG/1.1/DTD/svg11.dtd" >
<svg xmlns="http://www.w3.org/2000/svg" xmlns:xlink="http://www.w3.org/1999/xlink" version="1.1">
<metadata></metadata>
<defs>
<font id="vincentiaregular" horiz-adv-x="761" >
<font-face units-per-em="2048" ascent="1638" descent="-410" />
<missing-glyph horiz-adv-x="851" />
<glyph horiz-adv-x="0" />
<glyph horiz-adv-x="682" />
<glyph unicode="&#xd;" horiz-adv-x="851" />
<glyph unicode=" "  horiz-adv-x="851" />
<glyph unicode="&#x09;" horiz-adv-x="851" />
<glyph unicode="&#xa0;" horiz-adv-x="851" />
<glyph unicode="!" horiz-adv-x="419" d="M270 158q1 -47 -6 -95q-1 -9 -19 -31q-24 -31 -76 -31q-46 -1 -94 25q-3 2 -8.5 6t-8.5 5q-29 12 -35 43l-15 45q-11 36 4 77q7 18 23 16q22 -4 67 11q14 5 38.5 6t32.5 2q15 3 30 0q25 -4 38 -11q7 -4 16 -25q5 -14 13 -42h-16v-2q3 1 8.5 1h7.5zM146 699l-1 2l-1 -2h2z M104 551v2q-2 -2 -2 -3t1 -2l1 1v2zM76 613l-2 1v-1h2zM49 340q-10 53 -11 62q-2 18 -2 21q2 15 2 41.5t1 38.5q1 13 3.5 41.5t3.5 41.5q1 17 3.5 50t3.5 49v14q2 18 6.5 54.5t7.5 54.5q5 30 5 38q0 30 18 115q10 45 14 81q2 12 2 35v29q6 3 13 3.5t17 0t15 -0.5q70 5 93 0 q15 -3 37 -8q16 -4 28 -19q10 -11 7 -28q-7 -33 -17 -109q-6 -41 -18 -81q-7 -23 -13 -71q-12 -87 -21 -174q-8 -82 -11 -146q-1 -8 -2.5 -24t-1.5 -24q0 -5 -2 -16t-2 -16t2 -16q1 -2 -2 -20q-3 -14 -20 -16q0 -1 -7 -1l-7 1q-36 2 -54 2q-6 0 -49 -5q-10 -2 -17 1 q-16 5 -25 1z" />
<glyph unicode="$" horiz-adv-x="802" d="M534 388l2 -1l-1 3zM394 612l-1 1h-2l1 -2l1 1h1zM370 696v-2l3 1zM434 1153l1 -2q1 0 3 -1v2l-1 2h-1zM426 1193l1 -1h1l-1 1q-1 1 -1 2v-2zM421 1235l2 -1v2zM80 341v3l-2 -1l-1 -1l1 -1v-1h1q1 0 1 1zM351 446l-1 2q-1 0 -3 -0.5t-3 -0.5l1 -2q1 0 3 0.5t3 0.5z M325 279q2 2 3 4q0 1 -2 3l-4 -4zM361 403h6l3 9q-4 -2 -6 -4q-1 -1 -3 -5zM360 892q-10 -10 -11 -13q-2 -4 -16.5 -30.5t-19.5 -42.5q-16 -49 -24 -93q-7 -37 6 -68q4 -9 10 -29q2 -5 5.5 -8.5t9.5 -7.5t8 -6l4 2q2 2 6 7t5 8q-5 17 -5 19q-1 32 10 133q8 84 12 129z M411 322q8 -6 8 -14q1 -6 5 -23q2 2 5 7t5.5 8t5.5 4q30 17 51 66q25 59 8 110q-7 19 -24.5 27.5t-38.5 1.5q-3 -15 -3 -17q-2 -24 -6 -71.5t-6 -71.5v-7.5t-0.5 -8t-2.5 -6.5t-6 -6v-3q0 -2 -0.5 0t-0.5 4zM80 363q4 13 19 8q1 0 3 -2q18 -19 44 -20q4 0 8 -4t5 -4 q19 -11 43 -43t27 -35q17 -20 21 -23q22 -19 54 1q0 5 -1 17t-0.5 21.5t2.5 17.5q2 7 2 31t8 35q-4 6 -1 22t2 21q-2 15 10 31q-2 -2 -2 -3q1 -3 3 -7l2 2q-1 1 -2 3l-2 4q-3 10 -4 13q-6 14 4 23l3 -6q0 1 -2 2.5t-2 2.5q-1 4 3.5 13t1.5 15q-1 6 -1 9t2 11t3 11 q-2 1 -12.5 5t-15.5 7q-6 3 -18.5 8t-22 10.5t-16.5 12.5q-13 2 -54 29q-86 57 -92 168q-3 47 16 94q4 11 16 49q17 56 43 89q41 54 86 64q4 1 9 2.5t11.5 3.5t9.5 3q25 8 40 0q10 -5 45 -3q16 62 26 172q14 11 25 3q6 -5 23.5 -11.5t24.5 -13.5q26 -26 22 -54q-1 -12 0 -24 q5 -25 -3 -76q4 -1 19 -3t23 -3q22 -2 58 -20q35 -16 21 -55q-6 -17 -22 -20q-12 -2 -45 -10q-2 3 -13.5 17t-20.5 20.5t-21 9.5q-4 -4 -5.5 -8t-1.5 -10t-1 -8q-2 -9 -4 -27q-2 -17 -5.5 -53t-5.5 -53q-2 -18 -5.5 -53.5t-5.5 -52.5q-2 -19 -8 -65q-1 -6 -1.5 -16.5 t-1.5 -19t-3 -15.5q-3 -9 -3 -25.5t-2 -24.5q-4 -13 13 -15q49 -3 137 -35q42 -15 78 -66q37 -52 20 -123q-9 -36 -38 -74.5t-56 -55.5q-2 -1 -8 -5l-9 -6q-36 -27 -86 -32q-24 -2 -72 -10q-2 0 -10 -4q-2 -13 -5 -79q0 -16 -2 -48q-1 -15 -21 -16q-12 1 -17.5 -1t-14 1 t-11 3t-8.5 4t-8 5.5t-8.5 7t-9.5 8.5q-8 7 -15 10v67q0 2 5 3t3 4q-6 14 -6 19.5t7 22.5q-13 8 -14 8q-63 10 -90 29q-11 8 -29 12q-12 3 -23 9t-24 15.5t-21 13.5q-1 1 -10.5 6.5t-12 7t-10 6.5t-11 8.5l-8.5 8.5t-9 11q-15 2 -25.5 22.5t-12.5 23.5q6 6 13.5 23.5 t16.5 25.5q1 -3 3 -7.5t3 -6.5q3 2 7 5t7 5q2 -1 11 -3t13.5 -6t5.5 -12q-2 0 -4 0.5t-4 0.5q2 0 4 -0.5t4 -0.5z" />
<glyph unicode="&#x26;" horiz-adv-x="856" d="M38 262l-2 2q-1 0 -5 -2l2 -2q1 0 5 2zM380 870l-1 1q-1 1 -1 2l-2 -2q1 -1 3 -4q0 1 1 3zM87 806q-1 -1 -1 -2q0 -2 1 -3l2 2q0 1 -1 1zM171 206l-1 -1v-2l1 1v2zM461 249q1 3 1 10t1 11t2.5 10.5t2.5 11.5t1 10q0 1 -6 28q-1 2 0 6t1 5q0 20 -16 21q-17 2 -34 0 q-8 -1 -26 2.5t-28 1.5q-16 -2 -22 16q9 3 25 9t29.5 10t26.5 5q27 2 32 16q1 3 12 3q5 0 17 1t17 1q13 0 28.5 2.5t26.5 5t29 6.5l27 6q17 4 85 6q11 0 31 -2q10 -1 19 -6q12 -5 9 -16q-3 -13 -14 -13q-5 0 -50 -8l-48 -9t-47 -9q-1 0 -10 -9l3 -9v-1q1 -1 1 -2q2 2 2 4 q-1 3 -5 9q2 -1 6.5 -3t8 -3.5t6.5 -2.5q23 -48 21 -111q-1 -10 -5.5 -27.5t-5.5 -25.5t-11 -43q-3 -8 -6 -8q-7 1 -8.5 -2t-2.5 -10q-1 -9 -11 -20.5t-12 -17.5q-9 -2 -16.5 -8t-14.5 -15t-12 -13q-39 -36 -70 -47q-18 -7 -60 -15q-72 -14 -150 6q-90 24 -170 88 q-53 43 -69 116q-1 2 0 7.5t1 6.5q-5 73 10 119q3 9 11 25q1 1 4 5t3 6q1 11 6.5 20.5t16 21.5t13.5 16t7.5 7t11 6t9.5 5q10 6 16 9q-5 8 -11 14.5t-16 14t-13 9.5q-37 33 -50 80q-23 87 23 183q14 30 14 32q1 8 9.5 19t9.5 13q3 6 10.5 16.5t10.5 15.5q1 2 9 9t8 15 q0 4 2.5 7.5t7.5 6.5t7 5q17 18 44 15q43 -5 151 -3q56 2 102 -15q35 -13 51 -39q24 -38 30 -87q2 -9 -5 -34q-9 -26 -39 -26q-37 0 -58 27v25q0 26 -26 70q-2 4 -4 5q-8 6 -22.5 17t-20.5 15q-22 -7 -46 -33q-25 -28 -38 -61q-21 -53 -35 -74q-6 -9 -15 -41q-2 -8 -5 -23.5 t-5 -23.5q-13 -54 3 -112q1 -3 18 -35q6 -2 19.5 -4.5t19.5 -3.5q9 -2 25 -6t25 -6q12 -2 21 -17q-4 -5 -9.5 -7t-12.5 -3.5t-10 -2.5q-33 -12 -42 -27q-3 -4 -12.5 -12.5t-12.5 -14.5q-15 -28 -15 -41q0 -2 -5 -20q-20 -61 -21 -114q-1 -49 29 -101q15 -25 43 -34 q20 -8 46 7q7 4 19.5 10t22.5 11.5t18 11.5q69 53 91 124q1 3 2.5 6t3.5 6.5t3 5.5v-4q1 2 1 4z" />
<glyph unicode="(" horiz-adv-x="546" d="M45 151h2l-1 2zM150 188v-1l-1 -1h3v1l-1 1h-1zM87 742v-2l1 2h-1zM87 50h2v4l-2 2v-6zM47 404h-2l1 -2zM129 912l-1 -1v-2v-1l1 -2l1 1v2v1zM47 214q-2 -2 -2 -3q0 -2 2 -6v9zM48 247v1l-1 2q-3 -3 -3 -4v-1q1 -1 1 -2q1 1 3 4zM83 838q2 2 4 3l3 1.5t1 1.5q4 5 -1 7 q-1 1 -2 0q-2 -2 -5 -13zM45 456h2v28h-3q0 -5 0.5 -14t0.5 -14zM42 684q6 7 6 33q0 27 6 54q16 64 31 93q6 12 7 19q2 18 16 49t16 37l5 5q0 -1 -0.5 -4t-0.5 -4q0 1 0.5 3.5t0.5 3.5q0 10 3 20.5t6.5 17t10.5 18.5t9 17q53 99 93 152q26 35 53 53q49 -9 67 -13 q21 -5 59 -34q3 -2 5.5 -6.5t4.5 -11.5t4 -10q-11 -18 -34 -53t-35 -53q-10 -15 -11 -18q-10 -26 -34.5 -72t-33.5 -67q-14 -32 -20 -48q-43 -110 -50 -138q-25 -96 -37 -176q-8 -55 -8 -61q0 -4 -6 -13t-4 -17q1 -8 0.5 -12t-2 -12.5t-1.5 -12.5q-1 -11 -1 -35v-34 q-2 -70 -2 -83q1 -24 7 -72q1 -9 4 -28.5t4 -29.5q2 -24 13 -67t13 -53q0 -1 1.5 -3t1.5 -3q0 -12 2.5 -22t11 -23t11.5 -17t15 -19q8 -10 14 -20q9 -17 20 -26q3 -2 10 -17q-9 -7 -10 -7q-53 -6 -77 2q-60 21 -83 52q-3 4 -10 12.5t-10.5 13t-7 13t-4.5 16.5q0 8 -5 8 q-13 0 -21 19q-8 17 -15 49q0 1 -3 39q-2 -2 -3.5 -5.5t-2.5 -4.5q-5 2 -5 4q-5 18 -13 54q-3 14 -7.5 40.5t-4.5 29.5q-3 15 -3 31q-1 39 -1 117q0 27 4 33q1 3 0 6q-7 7 -4.5 37t1.5 37v11.5v11.5q-3 15 7 25q-9 9 -3 26q5 12 4 16q-1 12 -0.5 18t3 18t3.5 18q1 9 4 27 t4 27q1 10 13 20z" />
<glyph unicode=")" horiz-adv-x="479" d="M170 -38l-2 -1l2 -1v2zM278 688v1l-1 1l-1 -1v-2l1 1h1zM360 734l-2 -2l2 -1v3zM360 810h-1v-2zM153 313q0 1 -1 3q-2 -2 -2 -4q1 0 2 -1q0 1 0.5 1t0.5 1zM358 666q0 -1 -0.5 -3t-0.5 -3q1 0 2 -0.5t2 -0.5q0 1 -0.5 3t-0.5 3q-1 1 -2 1zM361 845q0 1 -0.5 3t-0.5 3h-1 v-6h2zM223 500h2t2 1h-3h-3q1 0 1 -0.5t1 -0.5zM135 210q-2 2 -5.5 3.5t-4.5 2.5q6 25 7 40q2 29 10 38q1 1 0 4q-1 1 -1 1.5v1.5q2 21 5.5 25.5t23.5 8.5q-1 1 -5 2t-5 1q-4 3 -4 9v10q-1 3 5.5 12.5t-2.5 13.5q1 5 3 15.5t3 15.5q4 20 4 30q0 11 1.5 23t4 26.5t3.5 21.5 q8 55 11 63q5 13 7 51q7 123 10 147q3 35 -5 119q-4 40 -35 144q-18 66 -43 112q-19 37 -44 58q1 3 2.5 4t4.5 0t4 -1q52 -3 117 -23q30 -11 50 -35q19 -23 31 -41q13 -19 21 -43l21 -66q3 -8 7.5 -23t6.5 -22q8 -21 13 -45t10 -54.5t8 -45.5v-17q-2 -1 -8 -3.5t-8 -3.5 q0 -4 1 -5t3.5 -0.5t4.5 1t3 -0.5q0 -1 2 -2.5t2 -2.5q2 -37 1 -55q0 -12 -1 -25.5t-2.5 -30t-2.5 -25.5q0 -11 -4 -12q-11 -4 -4 -12q10 -12 3 -26q-7 -12 -9 -50q-1 -33 -11.5 -93.5t-12.5 -86.5q0 -9 -4 -12q-11 -8 -13 -35q-2 -14 -4 -23q-3 -12 -9.5 -37t-9.5 -37 q-2 -9 -15 1q-1 -1 -1 -4q1 -2 5 -8t5 -9q1 -4 -4 -20q-2 -11 -8 -31.5t-8 -30.5q-5 -21 -17 -33q-16 -16 -16 -36q0 -16 -11.5 -43.5t-13.5 -34.5q-1 -5 -7 -15t-7 -16q-1 -5 -6.5 -14.5t-5.5 -16.5q0 -11 -9 -18q-7 -5 -13 -19.5t-12 -19.5q-16 -14 -31 -11q-5 1 -14.5 1 t-17 2t-13.5 8q-2 2 -7.5 1.5t-8.5 0.5q-12 4 -17 10q-2 2 -4.5 8.5t-4.5 8.5q-3 2 -9 3t-9 2t-12 10q2 15 19.5 18t20.5 5q-12 9 -5 28q2 5 5.5 7.5t8.5 3.5t8 3q-6 4 -11 7q7 16 7 17q5 7 8.5 15.5t7.5 21.5t5 17q5 13 11.5 37t8.5 32q0 1 2 4t2 5q1 3 8 8.5t6 12.5 q0 4 2 24q3 1 6.5 3t6.5 3q-16 8 -10 26q5 15 18 16z" />
<glyph unicode="+" horiz-adv-x="948" d="M436 34l-1 3l-1 -3h2zM312 49l-2 1v-3zM797 400v-1h3zM437 132q-1 0 -1 0.5t-1 0.5q0 -1 -1 -3l1 -1l2 -1v4zM726 460q0 -1 -0.5 -2.5t-0.5 -2.5l2 2q0 1 -1 3zM683 452l2 2l1 1q0 1 -1 3.5t-2 3.5v-10zM313 150h-3v-19h2q0 3 0.5 9.5t0.5 9.5zM310 231h3q0 1 -0.5 4 t-0.5 5t-0.5 5t-0.5 4h-1v-18zM452 313v-174q0 -11 0.5 -31t0.5 -31q0 -19 3 -27q2 -9 2 -11.5t-2.5 -11.5t-2.5 -12q-2 0 -7.5 -0.5t-8.5 -1.5q-1 0 -12 -4.5t-12 -4t-12 2.5q-6 4 -16.5 2.5t-16.5 0.5q-11 5 -37 10t-39 11q-2 7 -8 23.5t-9 25.5q-4 10 -1 17q3 11 1 57 q-1 10 -1 32v32q0 2 3.5 7t3.5 7t-6 7q0 5 -0.5 14t-0.5 14q0 7 -2 29q-10 -1 -27.5 -3.5l-24.5 -3.5q-120 -14 -158 -11q-19 1 -33 20q-20 29 -25 81q-2 18 -4 50q2 0 7 2t8 2q14 1 39 3t45.5 3.5t38.5 2.5q11 1 32.5 5t30.5 5q20 2 70 8q14 14 10 36q-1 10 -0.5 15t2 15.5 t1.5 15.5q1 16 4.5 47.5t4.5 47.5q2 19 5 55t4 55q0 4 2.5 16t2.5 18t-2.5 19t-3.5 16q3 0 29 5t39 4q45 -3 94 -30q28 -17 24 -50q-8 -65 -19 -181q-2 -17 -4.5 -50t-3.5 -48q2 0 9.5 -2t11.5 -1q5 0 27 4t34 3q6 0 28.5 4t28.5 -2q13 6 38.5 7t30.5 2q42 8 94 -3 q1 -4 2.5 -13t2.5 -13l1 1v2q0 3 1 7.5t2 6.5q2 11 10 11t16 -5q1 -1 6 -8q1 -2 5 -18t12 -23q6 -5 10.5 -19t9.5 -19q1 -1 6 -25q-12 -1 -21 -3q-2 0 -8.5 0.5t-7.5 -1.5q-15 -12 -52 -10q-3 0 -12.5 1t-14.5 0q-4 0 -13 -1.5t-13 -2.5q-7 -1 -44 -6.5t-58 -4.5 q-12 0 -20 -6q-12 -9 -23 -2q-4 -7 -25 -7h-55q-4 0 -7.5 -1t-9.5 -3t-10 -3z" />
<glyph unicode="," horiz-adv-x="387" d="M188 -35l-2 -2l2 -4l2 4zM255 42h1l2 1q-1 0 -2.5 0.5t-2.5 0.5zM24 136v1l-1 1q-2 -2 -2 -4l1 -1v-2q0 1 1 3zM22 204q8 1 41 3.5t50 4.5q37 5 60 -18q10 -10 24 -9q7 1 29 -9q11 -6 33 -20q30 -75 13 -138q-3 -12 -3 -24q-2 -46 -16 -73q-2 -4 -3 -13t-2 -13 q-2 -5 -10 -13q-5 3 -8 5q0 -2 -1 -6.5t-1 -6.5q-4 -27 -28 -28q-32 -2 -48 12q-2 2 -15 10.5t-18 16.5q2 1 5 4.5t5.5 6t4.5 2.5q3 0 5 1l4 2t3 2t2.5 3.5t2 3.5t2 3.5t1.5 3.5q11 22 18 54t5 55q-3 3 -19 0q-34 -4 -90 28q-34 21 -39 27q-36 41 -18 97q2 5 11 26z" />
<glyph unicode="-" d="M633 367h-3q0 -1 0.5 -2.5t0.5 -2.5l2 2v3zM7 460q37 0 55 1q15 1 63.5 3.5t74.5 3.5q5 0 21 1t24 1t20.5 -1t22.5 -5q4 -2 7 0q10 7 28 6.5t28 1.5q9 4 17 -2q10 -7 36 -7q18 0 55 0.5t55 0.5q23 0 28 -2t15 2q3 1 3.5 3t0 3.5t0.5 2.5q4 5 10.5 4.5t9.5 -5.5 q25 -39 33 -53q3 -6 0 -9q-4 -6 3 -10q26 -15 40 -64q1 -5 -1.5 -14.5t-2.5 -11.5q-49 6 -96 12q-12 2 -16 -1q-12 -8 -47 -8q-97 0 -145 -1q-10 0 -21.5 -1t-25 -2.5t-21.5 -2.5l-99 -9q-5 -1 -23.5 -5.5t-29.5 -3.5q-10 1 -30 -3q-27 -7 -60 26q-12 12 -18 29 q-3 8 -5.5 18t-5 22.5t-4.5 19.5q-7 34 1 60z" />
<glyph unicode="." horiz-adv-x="358" d="M22 172q53 13 113 8q13 0 16 -2q10 -7 61 -25q46 -17 38 -67q0 -1 -2 -8.5t-1 -11.5q2 -13 -12 -31q-3 -5 -16 -9.5t-15 -13.5q-15 -8 -36 -10q-27 -2 -41 0q-21 3 -35 12q-5 3 -22 13t-26 15q-20 9 -31 39q-19 52 9 91z" />
<glyph unicode="/" horiz-adv-x="796" d="M70 -98l2 1v3l-3 -1q0 -1 1 -3zM114 -53l-2 2l-2 -2l3 -3l1 1v2zM112 28v-1l-1 -1l1 -1v-1v1l1 1l-1 1v1zM238 494q0 2 -1 3l-2 -1l1 -1v-2l1 1h1zM279 579h-2v-3zM358 778h-3l3 -1v1zM108 79h3l-1 2zM238 365q0 1 -1 2t-1 2q0 -1 -1 -1t-1 -1t3 -4q0 1 0.5 1t0.5 1z M62 -5l4 -6q3 1 7 5q0 1 -1 2q-2 2 -2 3q-2 -1 -4.5 -2t-3.5 -2zM74 -42h-7q0 -2 0.5 -7t0.5 -8l2 -1h2q0 3 1 8t1 8zM114 123l1 1h2l1 -1h-5v7l-3 -3zM404 943q-4 54 17 86q9 33 32 91t29 76q25 71 26 96q0 1 2 3t2 3q66 -11 73 -12q19 -3 35 -12q5 -3 16 -8.5t17 -9 t14.5 -9.5t15 -13t11.5 -15q-18 -63 -36 -105q-4 -9 -9 -27t-7 -25q-2 -6 -7.5 -15.5t-7.5 -14.5t-3 -16.5t-4 -16.5q-10 -17 -21 -50.5t-15 -42.5q-6 -13 -15 -39t-11 -32q-9 -25 -28 -75.5t-29 -75.5q-27 -75 -47 -121q-10 -21 -25 -64t-25 -64q-4 -10 -10.5 -31 t-10.5 -31q-11 -24 -25.5 -70.5t-22.5 -65.5q-3 -8 -8 -23t-10 -27t-12 -22q-5 -8 -7 -22q-3 -15 -13.5 -42t-13.5 -42q-10 -48 -29 -70q-9 -11 -8 -25q1 -15 -10 -41.5t-12 -29.5q-5 -16 -15 -17q-1 0 -3 -3t-1 -4q8 -13 -4 -28q-7 -9 -24 -11q-4 0 -25 -11q-11 -7 -23 -4 q-48 14 -86 19q-6 1 -16.5 6t-14.5 6q1 6 2 19.5t3.5 23t8.5 17.5q8 4 14 -7l1 1q2 1 2 2v17q0 47 16 67q5 5 5 9q-3 22 26 40q-6 7 -6 13t2.5 10t6.5 10l6 9q-10 14 -4 22q5 8 14 35q1 4 8 11.5t8 12.5q2 4 1.5 13t0.5 14q7 31 17 49q1 2 2.5 8.5t4.5 10.5t9 5 q1 4 4.5 10.5t4 10t-3.5 11.5q5 11 13 37t15 40q4 7 28 77q2 6 7.5 24t9.5 28q19 46 30 87q0 2 2 6.5t3 6.5q2 9 19 13q-3 22 -3 23q1 9 7 23q30 71 33 79q2 5 4 15.5t5.5 18t9.5 12.5q-1 11 7 29t9 24q10 43 12 49q3 10 10 27.5t9 23.5q2 5 5 6.5t9 2.5t7 1z" />
<glyph unicode="0" horiz-adv-x="598" d="M316 772q-11 -36 -23 -52q-3 -4 -16 -41q-6 -16 -17 -47t-17 -46q-2 -6 -7 -17.5t-7 -17.5q-4 -10 -13 -43q-2 -8 -7 -21.5t-8.5 -25t-5.5 -21.5q-9 -44 -15 -92q-3 -24 -7 -72q0 -1 -3 -71q-1 -13 1 -35.5t2 -32.5q0 -17 7 -40q1 -2 15 -31q8 -14 23 -7q24 12 29 25 q0 2 2 3.5l4 3t3 3.5q21 26 25 34q53 117 60 199q3 37 13 67q1 2 5.5 10t4.5 13q5 127 2 164q-2 40 -1 51q3 26 -6 50q-3 10 0 13q5 4 6 8t0.5 10.5t-0.5 9.5q0 2 -2 6q-5 -12 -5 -13v-4q0 -3 -1.5 -4t-6.5 -1q-5 28 -34 65zM162 825q1 1 3 1q1 1 2 1q55 0 82 4q5 1 11 -1 t13.5 -5t11.5 -4q2 -1 7.5 -3t8 -2h7.5q8 3 30.5 1.5t30.5 -0.5q40 4 70 -36q2 -2 7 -10.5t8 -12.5q24 -29 29 -76q1 -11 2.5 -33.5t2.5 -34.5q1 -9 5 -27q2 -10 1 -12q-5 -7 -7 -40q-1 -15 -5 -38q0 -3 -1.5 -8.5t-2 -8t0.5 -6.5q6 -18 -10 -41q-4 -5 -2 -10 q2 -13 -0.5 -27t-7.5 -30.5t-7 -25.5q-7 -30 -7 -40q0 -16 -5 -34q-13 -51 -24 -79q-6 -18 -38 -91l-6 -12q-12 -6 -12 -27q-1 -24 -31 -36q-4 -1 -8 -3t-8.5 -5t-7.5 -4q-15 -8 -54 -8q-68 0 -113 22q-66 32 -96 75q-36 52 -39 118q-5 87 8 165q1 9 5.5 45.5t8.5 56.5 q8 40 16 59t16 59q1 8 9.5 23t9.5 24q1 7 16 45q14 32 22 47q7 14 23 42q9 18 25 43z" />
<glyph unicode="1" horiz-adv-x="415" d="M198 249h-2l1 -3zM197 159l1 1l-2 1zM115 735q0 -1 -0.5 -2.5t-0.5 -2.5l2 2v1q-1 1 -1 2zM282 127h-2l1 -2zM157 147v3q-1 0 -2.5 -0.5t-2.5 -0.5v-2h5zM280 22q1 -14 -20 -20q-5 -2 -26 2.5t-25 8.5q-13 13 -24 14q-11 0 -21 12q-3 4 -17.5 13.5t-17.5 20.5 q2 37 2.5 52t-1.5 53t-2 53q0 10 -1.5 35.5t-0.5 39.5q6 153 15 306q0 7 1.5 22t2 22t-1.5 23q-6 -2 -11 -10t-8 -9q-10 -4 -19 -19q-2 -3 -6 -11t-6.5 -12t-7.5 -9t-11 -8q-3 -1 -3 -6q0 -6 -3.5 -11t-6 -6.5t-9.5 -4.5t-9 -4q-4 6 -16.5 1.5t-15.5 -4.5l-9 3 q-1 7 1.5 12.5t7 11.5t6.5 10t10 11.5t9 14.5q1 6 7 15.5t7 12.5q10 25 19 31q1 1 2 3t2 5t2 4q4 7 9.5 22.5t12 26t16.5 18.5q3 2 4.5 6t2.5 10t2 9q7 19 28 26q57 18 105 7q26 -6 46 -23q11 -9 11 -24q-1 -17 -1 -52q-2 -92 -7 -165q-1 -9 -4.5 -33t-3.5 -33t2 -33 q-7 -18 -8 -53.5t-2 -45.5q-14 -14 -15 -16q-5 -11 5 -22q4 -5 4 -16q0 -97 2 -117q2 -17 3 -47t2 -40q2 -20 0 -62q0 -3 -1.5 -6.5t-4 -8t-3.5 -6.5q0 1 1 3t1 3q0 -1 -1 -3t-1 -3z" />
<glyph unicode="2" horiz-adv-x="591" d="M88 212h1l1 1q-1 0 -2 0.5t-2 0.5zM104 718q6 48 23 75q18 28 45 35q64 16 109 16q55 0 104 -21q33 -14 54 -30q53 -40 42 -112q-9 -53 -49 -131q-3 -5 -8 -16t-9.5 -19t-10.5 -15q-8 -9 -11 -22q-5 -19 -28 -58q-23 -37 -42 -82q-5 -10 -18 -29t-17 -30q-3 -6 -12 -19 t-12 -22q-3 -8 -11.5 -21.5t-11.5 -20.5q-5 -12 -15 -33t-12 -26q-5 -10 -13 -30t-13 -30q-1 -2 -2 -7.5t-2 -7.5q10 -2 40 -2q16 0 49.5 3t50.5 3q62 2 113 -1q27 -1 51 -25q-10 -24 -37 -24h-83q-17 0 -36 -1t-41.5 -2.5t-35.5 -2.5t-38.5 -3.5t-37.5 -3.5q-67 -5 -113 18 q-5 3 -16.5 7.5t-17.5 7.5q-14 8 -9 19q3 5 -9 12q-16 10 -10 30q1 2 2 8t3 9q9 15 19.5 48t18.5 47t21 50q8 24 20 39q3 4 30 53q10 18 29.5 51t24.5 41q4 6 9 17.5t6 13.5l30 54q76 131 93 172q23 53 -2 100q-34 10 -78 -4q-4 -1 -12 -11l-42 -63q-9 -16 -14 -19l-8 -5 q-8 -4 -9.5 -6t-5 -6.5t-3.5 -10.5q-5 -1 -16.5 -12t-23.5 -6q-17 32 8 62v-3v-1v3z" />
<glyph unicode="3" horiz-adv-x="593" d="M226 541q2 4 2 6l-2 2q-2 -4 -2 -6zM19 159q-1 1 -1 2t-1 2l-2 -2q0 -1 3 -4v1zM94 223l3 -6q55 -31 62 -36q17 -12 23 -24q10 -23 33 -57q14 -22 35 -2q8 8 15 18.5t10 17.5t8.5 22t7.5 20q29 73 16 160q-2 12 -7.5 32.5t-6.5 25.5q-24 15 -44 25q-15 7 -29 8 q-15 1 -36 10q-24 10 -29 28q-5 16 -17 19q-4 1 -5 6.5t3 6.5q6 2 18.5 14t23.5 13q4 1 16 13.5t16 18.5q25 35 32 53q20 50 35 114q9 40 9 68q0 11 -1 17q-3 13 -4 18q-13 2 -18 1q-2 0 -9 -2t-9 -2.5l-8 -2t-9 -3l-8 -4t-8.5 -5.5t-6.5 -7q-3 -3 -20 -13q-29 -19 -61 2 q-8 5 -23 18q0 1 1.5 7.5t3.5 8.5q33 37 73 42q35 4 55 5q70 3 79 2q38 -2 64 -14q52 -25 71 -84q5 -16 3 -57q-3 -51 -20 -91l-9 -33q-17 -63 -54 -124q4 -7 5 -7q61 -22 96 -101q14 -31 16 -77q0 -8 1.5 -25t2 -25t-1.5 -25q-5 -32 -8 -37q-2 -3 -7 -33q-7 -35 -16 -45 q0 -14 -12.5 -31.5t-14.5 -21.5q-8 -21 -34 -28q-58 -14 -88 -9q-91 15 -125 33q-10 6 -41 17t-46 22q-7 5 -23.5 13.5t-27.5 17.5t-17 23q-1 2 -14 10q-13 7 -13 23q0 46 18 78q3 0 11 -1t11 -2t8 -3.5t7.5 -7.5t2.5 -13q26 -2 36 8z" />
<glyph unicode="4" horiz-adv-x="692" d="M386 84l1 2l-2 1zM180 591q0 1 -0.5 1t-0.5 1l-2 -1q0 -1 2 -3q0 1 0.5 1t0.5 1zM156 615l-2 2v-2h2zM403 324v2l-2 -1zM177 734q9 35 15 45q5 9 9 29t5 30q4 0 7.5 0.5t7.5 1.5t6 1q17 2 27 -6q22 -17 26 -22q6 -7 8 -22q4 -30 -11 -74q-2 -6 -9 -25.5t-10 -30.5 q-3 -10 -11.5 -27.5t-9.5 -19.5q-8 -17 -32 -87q0 -1 -0.5 -4.5t-1.5 -5.5q-13 -23 -30 -67.5t-21 -54.5q-3 -8 -10 -15q-8 -8 -8 -22q0 -22 -11 -31l-3 -1q4 -11 -5 -31.5t-3 -32.5q9 -5 21 -6.5t22.5 -1t22.5 -0.5q57 -5 107 2q13 1 18 0.5t17.5 -3.5t17.5 -4q3 -1 10.5 0 t10.5 1q3 13 3.5 25.5t-0.5 30t-1 24.5q0 45 -6 58v3q5 9 5 20t-2 23.5t-2 19.5q0 9 2 26t2 25q1 19 2 53.5t2 62.5t2 53q1 16 4 48.5t4 48.5v17v21v19q3 1 17 5.5t19 4.5t21 -1q7 -2 21.5 0.5t19.5 2.5q33 0 97 -31q22 -11 19 -38q-2 -14 -4 -41.5t-4 -40.5l-21 -171 q-2 -16 -5 -48t-5 -48q-1 -11 1 -68q2 -39 -1 -58q0 -1 -1 -4.5t0 -5.5q5 -18 5.5 -38.5t-0.5 -45.5t0 -39q1 -16 4 -55t4 -61q0 -16 -1 -24q-4 -20 -24 -21q-45 -3 -87 15q-15 6 -15 16q0 1 -3 3.5t-4 1.5q-12 -8 -24 6q-11 13 -35 20q0 9 2.5 76t-3.5 76h-7.5h-7.5h-6 q-51 -8 -113 0q-78 9 -79 9q-44 0 -79 4q-25 2 -36 9q-5 3 -29 8q0 3 4.5 12.5t-0.5 12.5q-1 1 -14 22q6 10 9 16l9 18q15 64 32 82q1 1 4 13q1 2 1.5 9t3 11.5t7.5 6.5q-5 14 7 32q1 2 10 28q1 4 9 12t8 16q0 3 8 30q7 20 26.5 68.5t28.5 75.5q1 1 14 23q0 -2 -0.5 -7 t-0.5 -7h2q0 2 -0.5 7t-0.5 7z" />
<glyph unicode="5" horiz-adv-x="555" d="M66 114h-2l1 -3zM2 114q-1 17 0 22t9 16q24 -2 66 -20q8 -3 22.5 -11.5t19.5 -10.5q4 -2 16.5 -6.5t18.5 -7.5q22 -11 42 6q35 29 45 63q36 119 30 204q-2 21 -8 61q-3 23 -26 21q-13 -1 -44 -5q-9 -1 -29 -3l-30 -3q-9 0 -12 -3q-11 -11 -29 -6q-2 0 -9 2.5t-9 3 t-8.5 2.5t-9 3.5t-7.5 4t-8 5t-7 6t-7 7.5q-8 11 -8 22v58t5 79q1 8 1.5 17.5t1 20.5t0.5 17l6 135v42q29 14 66 11q64 -5 147 5q11 2 17 1q111 -16 146 -27q1 0 3 -1t3 -1q12 -6 12 -15q0 -10 -14 -12h-10q-71 -4 -110 -7q-31 -3 -69 4q-18 3 -105 20q-2 -12 -2 -13 q16 -68 8 -127q-2 -11 -2 -32v-26t-2 -17q-7 -47 -6 -57q2 -5 0 -29t-2 -30q0 -3 2 -8t2 -6q72 9 93 9q42 0 81 -9q49 -11 77 -28q53 -31 68 -79q1 -5 5 -16t6 -17q5 -23 5 -27q0 -100 -21 -184q-12 -48 -28 -69q-6 -9 -21 -21t-19 -16q-15 -15 -50 -21q-73 -14 -122 3 q-76 26 -149 69q-8 5 -22.5 16.5t-18.5 14.5z" />
<glyph unicode="6" horiz-adv-x="555" d="M307 106l2 -1l-1 3zM351 113q0 1 1 3q-2 1 -3 1v-3q1 -1 2 -1zM433 341h1v2zM350 197l2 1q0 1 -0.5 3t-0.5 3l-3 -2q0 -1 1 -2.5t1 -2.5zM198 402q-2 -6 -2 -9q-3 -78 -3 -79q0 -13 0.5 -39.5t0.5 -39.5q-2 -75 14 -130q2 -6 3.5 -12.5t3 -14.5t2.5 -12q2 -6 8 -18 q7 4 19 9t17 8q4 3 7 7t9.5 13.5t10.5 14.5q2 2 5 7.5t6.5 9.5t7.5 6q9 4 7 15t0 16q2 2 2 3q22 46 26 56q6 17 10 40q6 48 1 78q-2 15 -2 17q6 24 -19 63q-11 18 -21.5 23t-30.5 2q-40 -5 -82 -34zM206 469q76 19 147 -4q21 -7 53 -24q22 -12 22 -33q1 -17 8.5 -47t8.5 -37 q7 -39 3 -62q-1 -5 -1 -30q0 -2 -0.5 -5.5t-0.5 -4.5q0 -9 -9.5 -26.5t-7.5 -28.5q2 -12 -6.5 -31t-9.5 -24q-1 -4 -4.5 -7.5t-10 -9t-9.5 -8.5q-1 -2 -2.5 -13t-5.5 -18q-12 -23 -43 -36q-48 -20 -69 -18q-30 2 -51 8q-75 25 -81 28q-64 34 -95 72q-19 22 -23 50 q-1 10 -6.5 27t-6.5 22q-7 32 -5 86q1 34 0 96.5t-1 82.5q0 24 1 35q15 148 20 202q5 44 10 119q3 0 8 1t8 1q69 -2 97 -18q12 0 23 -5t24 -13t21 -11q27 -13 24 -43q-1 -8 -3 -22t-3 -22q-2 -16 -6.5 -48t-6.5 -48q-1 -10 -2.5 -29.5t-2.5 -28.5q-4 -48 -6 -75z" />
<glyph unicode="7" horiz-adv-x="587" d="M119 98zM287 784q-5 -1 -15 -2t-15 -2q-39 -9 -89 -6q-8 1 -34 -4q-40 -5 -52 -4q-19 1 -42 11q-7 4 -20.5 9t-16.5 6q-2 7 7 9q46 18 90 19q34 1 77 15q39 12 56 15q31 2 41 2t41 -4.5t41 -5.5q14 -1 53 -23q-2 -12 -3 -17q3 -3 5 -4q34 -20 51 -29q25 -13 20 -47 q-3 -22 -10 -40q-2 -7 -16 -53t-25 -70q-5 -10 -11 -32.5t-10 -33.5q-6 -15 -18 -55.5t-22 -61.5q-3 -5 -5 -11.5t-4 -15t-3 -12.5l-36 -126q-4 -17 -5 -23q-1 -17 -8 -47.5t-9 -43.5q-1 -11 -10.5 -41.5t-8.5 -49.5q-39 -7 -93 0q-13 2 -38 10.5t-34 10.5q-15 4 -19 20 q-8 28 2 51q12 26 11 39q0 5 4 13q5 7 7 32q1 8 3 17.5t5 21.5t4 18q1 3 3.5 13.5t3.5 16.5q3 36 20 93q3 10 7 32.5t8 34.5q18 53 23 68q2 5 4 15t4 15q18 73 36 118q4 10 34 105q1 4 5 15t6 19z" />
<glyph unicode="8" horiz-adv-x="618" d="M53 287l1 3h-2zM52 311h2l-1 3zM434 317l-2 1v-2zM158 609q4 5 11 12t9 11q6 9 17 29t17 30q18 29 48 105q8 20 -1 41q-33 15 -81 1q-13 -4 -18 -13q-2 -4 -7.5 -18t-7.5 -18.5t-6 -18.5t-3 -19.5t1 -20.5q2 -16 6.5 -47.5t7.5 -47.5q1 -7 7 -26zM413 233q1 3 2.5 9.5 t2.5 9.5q-12 10 -13.5 14.5t4.5 18.5q4 9 -2 14q-4 3 -4 16q0 11 -5 29.5t-6 26.5q-1 6 -9 18q-1 1 -4 3t-4 3t-9 14.5t-15 17.5q0 9 -13 14t-14 13q0 4 -10 9q-8 6 -12 -3t-12.5 -27.5t-13.5 -27.5q-18 -38 -25 -59q-4 -13 -15 -35.5t-13 -27.5q-4 -8 -8 -26q-2 -9 -5 -28 t-5 -29q0 -2 -4.5 -18.5t-4 -19t1.5 -19.5q0 -1 -2 -6q-5 -12 0 -54q4 -2 10.5 -6.5t9.5 -6.5q4 1 17 3.5t19 4.5q44 10 49 13q6 3 20 15t25 15q4 0 4 5q0 7 3.5 12.5t9.5 12t8 9.5q23 33 27 71l6 18q2 -4 5 -8.5t4 -7.5zM60 697q5 10 5 12t-3 38q-6 58 12 109q60 32 128 26 q18 -2 51.5 -7.5t47.5 -7.5q40 -6 73 -34q2 -2 15.5 -10t16.5 -16q16 -42 17 -49q7 -44 -9 -108q-5 -14 -10 -18t-9 -10t-6 -10.5t-5 -12.5t-4 -11q-10 -23 -27 -47q-3 -4 -8 -14l-7 -14q17 -13 21 -14q12 -4 30 -22l51 -51q7 -7 12 -17q28 -58 37 -73q11 -16 11 -39 q0 -4 2 -10q1 -3 4 -10t3 -10.5t-3 -11.5q-3 -5 2 -13t4 -13q-1 -3 2 -34q0 -16 -1 -17q-5 -6 -4 -17.5t-3 -17.5q-2 -4 -10 -29q-4 -12 -16 -26q-27 -32 -61 -41q-7 -2 -17.5 -8.5t-15.5 -8.5q-103 -42 -204 -3q-2 1 -12 3t-14 5q-11 7 -49 25.5t-56 33.5q-9 7 -30 33 q-10 12 -19 28v14q-3 52 8 89q4 11 9 39.5t12 42.5q3 8 4 10q23 43 35 89q0 1 1 3.5t2 3.5q14 14 26.5 46t18.5 42q-20 26 -21 28q-2 5 -10 11t-10 12q-1 3 -6 11t-6 13q-5 27 -7 37t3 15q15 14 -1 36z" />
<glyph unicode="9" horiz-adv-x="731" d="M236 541l-1 -2l3 1zM453 249l-1 1h-1l-1 1v-1l1 -2q1 0 1 0.5t1 0.5zM394 249l-2 2l-1 -1h-1l2 -2h1zM382 84q-2 2 -4 3l-2 -2l2 -4q0 1 2 2zM382 145q0 1 -1 2.5t-1 2.5q-2 -2 -2 -3t1.5 -2.5t1.5 -2.5q1 0 1 1v2zM320 623v-1h12v2q-2 0 -6 -0.5t-6 -0.5zM422 105h-2 l3 -21h2zM166 510q10 4 15 7q48 28 89 83q3 4 12 12.5t12 14.5q6 13 28.5 45.5t29.5 52.5q5 12 8 15q7 7 13 16.5t8.5 15t7.5 20t6 17.5q2 5 2 15l-5 3q-1 0 -3.5 0.5t-3.5 0.5q-41 0 -72.5 -20t-66.5 -58q-4 -4 -28 -39q-24 -34 -50 -86q-15 -29 -15 -88q0 -19 13 -27z M559 7q-10 -2 -26 -4q-55 -4 -106 31q-12 7 -34.5 20t-29.5 17q-1 8 -1 26q0 9 2 23l20 5q-12 3 -18 4q-2 8 0 50q1 22 5 63t4 46q0 3 -2 9.5t-2 10.5q0 15 3 16q8 5 8.5 7t-4.5 6.5t-5 6.5q12 24 9 52l3 34q1 13 2.5 39.5t2.5 39.5v7q0 2 5 18.5t-2 20.5q-1 2 0 4t2.5 6 t1.5 6v5v6.5v5.5q-1 0 -4 -1l-3 -1q-8 -16 -28 -41.5t-25 -32.5q-14 -21 -19 -24q-3 -2 -13.5 -10t-15.5 -11t-15 -6t-19 -2q-4 1 -10 -7q-8 -10 -16 -11q-43 -6 -63 1q-82 30 -126 73q-18 17 -25 40q-23 69 6 134q4 8 17 33.5t18 40.5q6 19 20 35q7 8 19 23t22.5 27 t21.5 22q28 25 62 16q11 -3 21 -3q72 1 183 -21q7 1 6 11t0 11q1 0 2.5 1.5t2.5 1.5l41 -3q6 -2 21.5 0.5t21.5 -2.5q10 -7 39 -11q29 -5 53 -16q40 -18 31 -60q-3 -9 -3 -20q-6 -105 -15 -147q-4 -21 -6 -44q-3 -29 -8 -87.5t-7 -87.5q0 -7 -2 -22t-3 -23q-2 -23 -5 -68.5 t-4 -68.5q-6 -92 -10 -133q-1 -8 1 -26t0 -27q-1 -6 -1.5 -18t-0.5 -16z" />
<glyph unicode=":" horiz-adv-x="342" d="M12 314q61 23 111 14q13 6 44 0q25 -5 33.5 -14t12.5 -34q1 -2 1 -6t1 -5q11 -25 -10 -60q-10 -16 -30 -27q-38 -20 -88 2q-40 16 -57 30q-24 20 -25 46q-2 39 7 54zM29 761q4 0 23 1.5t29 1.5q12 0 34 -4q70 -17 76 -19q21 -7 39 -28q11 -13 3 -25q-6 -8 -4 -21 q2 -12 0 -18t-11 -16l-7 -9q-7 -8 -9 -10t-8 -7t-11.5 -7t-11.5 -3q-3 0 -7.5 -1t-8.5 -1.5t-8 -0.5q-66 7 -103 41q-5 5 -11 8q-37 23 -27 68q0 2 1.5 8t2 8.5t2 7.5t3 8t3.5 6.5t4.5 6.5t6.5 5z" />
<glyph unicode=";" horiz-adv-x="395" d="M20 777q6 -1 18.5 -1.5t19.5 -0.5q5 9 9 12h20q4 0 25 1.5t25 -2.5q7 5 29 1t29 -3q11 2 22 -6q27 -19 36.5 -36t2.5 -43q-12 -45 -28 -61q-5 -5 -6 -8q-7 -21 -40 -39q-24 -12 -66 -1q-2 0 -6 3t-6 3q-31 4 -75 46q-32 31 -24 85q5 3 6 6.5t0.5 9.5t-0.5 8t9 26zM266 65 q-7 -26 -16.5 -31.5t-34.5 2.5q-10 3 -28 13q-4 3 -8.5 6.5t-10 8t-8.5 6.5q16 17 20 25.5t14 46.5q-5 14 -16 7q-5 -3 -10.5 -3.5t-9 0t-10.5 2t-10 1.5q-29 4 -38 11q-6 5 -18.5 12t-15.5 9q-30 18 -37.5 45t-3.5 65q0 7 13 39q4 0 12.5 -0.5t13.5 -0.5t11.5 1t12 3.5 t10.5 7.5t13 3q20 -3 44 6q6 -6 19.5 -1.5t18.5 3.5h9.5t10.5 -2q12 -7 22 -7q21 -2 24 -20q3 -20 17 -37t16 -45q3 -76 -14 -154q-4 -18 -13 -23v6l-1 1v2q-2 -2 -2 -4q1 -3 4 -4z" />
<glyph unicode="=" horiz-adv-x="776" d="M455 523q1 0 3 1q-1 1 -3 1q-1 0 -3 -2h3zM576 486q11 -10 12.5 -15.5t-2.5 -24.5q-9 0 -25.5 -0.5t-30 -1t-25.5 -1.5t-35 -3t-34 -2q-22 -2 -29 6q-5 -1 -5 -2q-2 -8 -16 -10q-30 -2 -194 -25q-28 -4 -86 -10q-32 -3 -57 9q-38 20 -46 64q0 2 -3 50q12 2 21 3q6 1 17 3 t20 3.5t17 2.5q24 2 31 0q7 -3 15.5 1.5t11.5 4.5q6 0 17 2t14 2q9 1 45 6t59 7t46 1q4 0 42 5q2 -4 5 -9.5t4 -7.5q2 10 4 16q2 0 5.5 -0.5t5.5 -1.5q14 -6 40 0q12 3 54 5q12 1 38 1q0 4 0.5 9.5t0.5 8.5q10 -2 10 -3q4 -10 17 -25q26 -30 36 -69v1zM531 258l-1 3l-1 -3h2 zM585 277q0 -1 -0.5 -1t-0.5 -1l1 -1h1q2 0 2 3h-3zM520 275l-1 2q-1 0 -3 -0.5t-3 -0.5l1 -2q1 0 3 0.5t3 0.5zM473 276l2 -2q3 0 7 2h-9zM589 310q4 -6 30.5 -42.5t38.5 -56.5q18 -27 11 -50q-76 0 -85 -1q-23 -2 -66.5 -3t-53.5 -2q-16 -1 -55.5 -1.5t-61.5 -2.5 q-14 -1 -112 -14q-21 -3 -63.5 -9t-63.5 -8q-24 -2 -55 16q-10 6 -15 19q-2 5 -6.5 16.5t-6 16.5t-5 17t-2.5 18t2 19q15 3 43.5 9.5t52.5 10.5t45 4q10 0 29 3t28 3t27 -2t27 -1q43 2 134 10q7 1 20.5 2t20.5 2q14 1 42.5 3.5t43.5 4.5q39 4 56 19z" />
<glyph unicode="?" horiz-adv-x="649" d="M20 247q42 -7 77 1q11 1 15 2t15 -2t15 -4t14.5 -5t14.5 -5q5 -2 14 -15q10 -16 29 -22q22 -7 36 -30t15 -48q2 -52 -34 -83q-3 -3 -7 -11q-17 -26 -54 -24q-39 3 -87 29q-2 1 -5 3t-5.5 3.5t-4.5 2.5q-28 10 -50 54q-19 37 -16 82q4 44 18 72zM64 407l-1 -1h-1h1 q1 -1 2 -1q0 1 -0.5 1t-0.5 1zM236 334q-11 -15 -15 -18t-12 -1q-1 0 -3.5 3.5t-6.5 2.5t-11.5 1.5t-10.5 2.5q-30 4 -38.5 7t-30.5 19q-26 18 -41 24q-16 7 -20 26q-12 52 -3 87q1 3 1 17t5 22q3 5 5.5 17t5.5 17q3 4 0 11.5t-2 10.5q1 1 8 9q2 -1 6 -5q4 17 5 22q1 6 3 20 q1 5 12.5 28t16.5 29q24 32 64 71q44 44 66 53q8 9 38.5 36t42.5 46q16 25 30 62q7 20 11 50q3 27 -4 50q-14 8 -38 2q-16 -4 -43 -13.5t-35 -11.5q-14 -5 -27 -21q-32 -45 -96 -40q-24 2 -31 5t-30 18q0 1 -1 7.5t0 7.5q1 3 6 13.5t7.5 15t7.5 12.5t11 13t13 9q62 34 98 38 q6 1 17.5 3.5t15.5 3.5q21 5 79 -2q35 -5 41 -5q53 0 103 -21q55 -23 70 -66q2 -4 6 -13t5 -13q10 -28 2 -84q-2 -12 -10 -35.5t-9 -27.5q-4 -15 -26 -48q-2 -3 -8 -10.5t-8 -11.5q-5 -8 -28 -29q-16 -16 -47 -42t-45 -39q-40 -37 -73 -86q-25 -38 -42.5 -96.5t-14.5 -101.5 q0 -9 8 -51z" />
<glyph unicode="@" horiz-adv-x="1130" d="M35 439q0 -1 -0.5 -2.5t-0.5 -2.5l2 2v1q-1 1 -1 2zM638 1117l2 -1l1 1h-3zM420 1034l-1 1q-1 1 -2 1l-1 -2v-2h1q1 1 2 1t1 1zM918 869l-1 -1h-2h2q1 -1 2 -1q0 1 -0.5 1t-0.5 1zM621 497q0 -1 -1 -3h3q1 0 1 2h-1q-1 1 -2 1zM103 704h1v2zM78 368h1q1 1 2 1l-2 2 q-1 0 -3 -1zM707 106l-1 1v2q-2 -2 -2 -4l2 -2v1zM82 660v3q-1 0 -3 -0.5t-3 -0.5v-3q1 0 3 0.5t3 0.5zM912 837l2 2l-2 1v-3zM460 1075q-1 0 -2.5 1.5t-2.5 1.5t-2.5 -1.5t-2.5 -1.5q1 0 2.5 -1.5t2.5 -1.5t2.5 1.5t2.5 1.5zM164 826q2 0 4 -0.5t4 -0.5l-1 1l-1 1 q-1 0 -3 -0.5t-3 -0.5zM359 1032v2q-1 0 -3 0.5t-3 0.5q-2 0 -4 -2q1 0 5 -0.5t5 -0.5zM576 537q23 35 25 37l3 11q1 10 5 21q59 0 64 -1t57 -23q37 -16 51 -66q3 4 7.5 8.5t7 7.5t3.5 6q32 66 53 134q11 38 25 70q3 6 5.5 21t4.5 21q2 4 -1 7q-9 8 -10.5 18t0 24t1.5 19 q-3 38 -20 61q-14 20 -11 31q1 6 -7 10t-9 9q-4 14 -14.5 26.5t-24.5 26t-21 21.5q-11 15 -37 13q-50 -4 -100 -23q-8 -3 -76 -33q-2 -1 -17 -11q-21 -16 -25 -18q-15 -8 -40 -26.5t-30 -21.5q-42 -28 -94 -99q-40 -53 -51 -74q-52 -94 -65 -141q-3 -10 -12 -37t-12 -42 q-15 -65 -15 -67q-1 -7 -7.5 -49.5t-5.5 -65.5q0 -63 4 -78q1 -3 -0.5 -11t0.5 -9q6 -10 11 -30t7 -25q2 -4 7 -10.5t7 -9.5q25 -42 69 -76q34 -27 79 -30q71 -6 141 6q67 12 142 40q29 11 50 28q17 14 29 32q7 10 12 10q1 0 3 -1q5 0 5 4q-2 7 7 17t5 18q12 32 41 31 q20 0 43 -1t50.5 -2.5t43.5 -2.5l8 -4q13 -40 -7 -66q-8 -11 -23 -32t-23 -31q-11 -13 -19 -13q-2 0 -4 -2t-4.5 -5t-4.5 -5q-29 -23 -63 -32q-45 -13 -60 -23q-1 -1 -3 -1.5l-4 -1t-3 -0.5q-13 -2 -35.5 -7.5t-41.5 -9t-36 -4.5q-81 -6 -155 -2q-64 4 -142 24q-13 3 -37 13 t-31 12q-74 26 -146 89q-56 49 -77 103q-4 12 -17 67q-1 3 1.5 7.5t5.5 5.5q19 7 19 33q0 2 0.5 7t0.5 7q-14 2 -32 14q1 5 0 16.5t0 20t7 15.5q0 -1 0.5 -3t0.5 -3q0 1 -1 3t-1 3q0 3 1.5 8t2 7t-1.5 8q-9 18 7 26q1 1 1 5t-1 6q-5 8 -1 27q10 4 16 7q-3 13 3.5 39t4.5 39 q12 11 3 31q-2 4 0 7q2 5 7.5 21.5t9.5 25.5q0 1 2.5 1t5.5 0.5t5 0.5q-4 16 0 27q26 66 41 90q4 5 11 23.5t16 27.5q2 0 11 1t15 2q-4 1 -9 3t-7 2q2 3 5 12t5.5 13.5t9 7.5t15.5 2q-11 15 5 29q11 10 27 15q-13 4 -5 12q5 4 35 27q7 4 4 11q6 3 24 15.5t31 15.5q3 0 9 8 t11 9q2 1 4.5 3t3.5 3q5 4 12 7.5t15.5 6.5t12.5 5q6 3 16.5 12t16.5 12q29 15 63 17q4 1 17 -0.5t19 3.5q-25 2 -36 -3q1 1 6 4.5t8 4.5q56 14 73 16q36 5 64 -7q42 -19 124 -28q16 -2 63 -18q51 -17 113 -63q6 -4 8 -7q46 -50 77 -117q0 -11 8.5 -31t8.5 -31q0 -44 -4 -65 q-2 -12 -4 -35.5t-5 -35.5q-5 -21 -17 -63q-3 -11 -9.5 -34t-10.5 -35q-4 -14 -14 -42q-17 -52 -66 -99q-36 -36 -89 -28q-56 8 -96 37q-14 10 -38.5 29.5t-33.5 25.5q-1 -1 -8.5 -10.5t-11.5 -15.5q-12 -19 -8 -29q1 -2 -4 -12q-2 -3 -7 -7.5t-8.5 -9t-3.5 -10.5 q-7 -1 -13.5 -10.5t-10.5 -11.5q-6 -3 -16.5 -10.5t-11.5 -8.5q-43 -29 -103 1q-11 5 -35 23q-46 32 -57 90q-2 10 3 52q0 2 2 6.5t2 6.5q2 36 38 113q6 12 22.5 38t22.5 42l3 6q2 4 10.5 5t9.5 9t14 19q42 32 89 32q13 0 86 -5q20 -1 56 -17q3 -1 6.5 -6t4.5 -6 q-4 -5 -8 -8t-7 -4t-8.5 -0.5t-7.5 1t-8 2.5t-7 2q-20 -4 -70 -31q-28 -15 -43 -43q-37 -73 -41 -91q-2 -8 -7 -27.5t-7.5 -30t-4.5 -26.5t-1 -30q0 -1 -5 -41q4 2 13 7.5t14 7.5q1 -1 2.5 -2t2.5 -2l2 2q-1 0 -4 0.5t-4 0.5q1 1 2.5 6t2 6t3 5t4.5 4t6 2t8 0q5 30 38 61 l4 -4q0 1 0.5 2t0.5 2h-3t-3 -1z" />
<glyph unicode="A" horiz-adv-x="1757" d="M1303 278l-1 1v2l-2 -1q-1 0 -1 -1t0.5 -2t0.5 -2zM1322 414q0 1 -3 7q-1 -1 -2.5 -3t-1.5 -3q-2 -8 2 -11q4 6 5 10zM1328 472q-2 -2 -2 -3q-1 -3 -1 -8q0 -3 2 -3q3 0 3 2v12h-2zM1301 317l10 8q0 10 -3 19q0 2 2 12t-4 12q-3 -19 -5 -51zM1295 590q9 33 25 89 q4 14 11.5 41t11.5 40l27 84q3 8 14.5 37.5t15.5 47.5q-11 -7 -12 -9q-6 -7 -22 -28t-25 -32q-31 -37 -62.5 -79t-70 -96t-59.5 -82q-3 -4 -7 -12l-5 -10q-13 -20 -24 -29q-8 -6 -20 -22q-1 -2 -2.5 -5.5t-2.5 -4.5q3 -3 17 0q30 7 82.5 28t75.5 28q3 1 32 14zM841 326 q-1 -1 -8.5 -6.5t-9.5 -10.5q-8 -15 -26 -43q-46 -78 -74 -113q-11 -14 -18 -28q-5 -10 3 -18q20 16 26 32t30 51q46 70 70 105q9 13 6 32q2 0 4 -0.5t4 -0.5q3 0 4 1l2 2h-6q-1 -1 -3.5 -2t-3.5 -1zM1035 595q2 2 6.5 4.5t6.5 3.5q6 4 -1 6q-1 0 -3 -2t-5 -6.5t-4 -6.5 q-1 -1 -2 -3.5t-2 -3.5q0 -1 0.5 -1t0.5 -1q0 2 1 5t2 5zM961 490q9 4 9 16q24 9 46 51q0 3 -1 3h-6q-29 -36 -39 -55q-2 -2 -5 -8l-4 -8l-3 -6q0 1 1 3.5t2 3.5zM627 596q-16 -14 -32 -5q-14 7 -40 23q-14 8 -29 6q-47 -4 -101 -48q-62 -50 -122 -123q-35 -43 -40 -48 q-12 -11 -39 -54l-33 -54q-19 -31 -40 -79q-29 -62 -45 -127q-2 -9 -6 -29q-3 -20 3 -41q3 -9 5 -20t4 -25l3 -21q5 -36 23 -76q4 -9 10 -14q12 -8 24 -28q10 -18 30 -21q20 -2 29 -6q23 -10 45 -3q8 3 24 7q54 13 89 37q10 6 30.5 18.5t30.5 19.5q55 35 93 85q12 16 38 47 t39 47q11 14 41 60q13 18 38 56t37 56q3 5 10 14t10 13q12 17 33 50.5t26 41.5q-5 3 -7 3q-64 -10 -96 -10q-16 -5 -32.5 -5.5t-40.5 1.5t-32 2q-4 0 -10.5 2t-9.5 2q-32 5 -52 39q-7 13 -2 25q0 1 7 4q2 2 4 0q30 -17 60 -16q18 -8 70 -8q37 0 105 14q25 5 73 19 q20 6 34 24q9 13 110 149q2 3 6.5 10t7.5 11q17 25 19 28q13 17 41 50.5t42 50.5q6 8 16 24q2 3 13 22q24 39 94 124q42 53 59 77q5 7 72 88q13 16 50.5 58.5t56.5 66.5q30 38 46 54q9 9 36 27q25 -1 48 -3q25 -1 53 -13q16 -7 25 -16q30 -29 16 -73q-26 -78 -70 -133 q-2 -2 -3 -6t-2 -5q-5 -8 -9 -8q-15 -1 -24 -21q-28 -62 -40 -93q-3 -7 -8.5 -21.5t-8.5 -21.5q-3 -6 -4.5 -18.5t-3.5 -17.5q-1 -5 -8.5 -13.5t-9.5 -14.5q-1 -5 -6.5 -19.5t-6 -20.5t0.5 -21q-5 -17 -15 -53q-8 -32 -6 -45q1 -4 4 -7.5t7 -2.5q47 7 59 8q11 1 67 1 q16 0 27 -11q8 -8 10 -13q3 -6 0.5 -13t-8.5 -8q-45 -9 -46 -9q-53 -2 -87 -14q-10 -4 -28.5 -11.5t-22.5 -8.5l-12 -27l-5 -16q-5 -16 -13 -21q-1 -1 -4 -15q-6 -26 -8 -28q-12 -13 -14 -43q0 -5 -1 -10.5t-2.5 -12t-2.5 -10.5q-16 -86 -19 -129q-7 -87 -6 -109 q1 -13 2 -38t2 -37q0 -2 9 -37q6 -18 8 -28q2 -7 -4.5 -14.5t-12.5 -6.5q-8 2 -23 4.5t-27 5.5t-22 9q-46 27 -52 67q-8 44 -9 67q-3 59 2 106q2 16 4 46t4 46q14 105 25 154q1 5 1 16l-9 2q-15 -5 -54 -19t-61 -21q-20 -6 -85 -25q-40 -11 -50.5 -18t-33.5 -39 q-13 -17 -18 -29q-20 -49 -67 -112q-4 -5 -27.5 -40t-38.5 -52q-4 -15 -25 -43q-3 -4 -10 -13t-10.5 -14.5t-8 -13.5t-6.5 -16q-6 -9 -20 -30.5t-25 -37t-23 -28.5q-13 -15 -36 -43t-29 -35q-4 -6 -29 -30q-16 -15 -50 -45q-2 -2 -17 -12q-37 -24 -43 -27q-8 -4 -43 -19 q-2 -1 -10.5 -3.5t-12.5 -4.5q-20 -11 -36 -11q-6 0 -8 -1q-10 -6 -22 -9t-28.5 -5t-23.5 -3q-41 -8 -91 7q-43 14 -110 63q-20 15 -44 39q-25 25 -26 51q0 3 -8 24q-38 84 -32 185q1 20 16 70q29 94 80 171q9 14 18.5 29.5t21 34.5t17.5 29q36 58 90 99q1 1 5 3.5t5 4.5 q8 17 34 36t33 26q8 10 70 61q19 16 37 17q6 1 33 8q14 3 17 2q7 -1 23 -3t28 -5t22 -9q31 -18 56 -16q12 0 14 -13q0 -4 1 -12.5t2 -12.5z" />
<glyph unicode="B" horiz-adv-x="1232" d="M317 300v3l-1 1l-2 1q-1 -1 -1 -3t2 -6q1 0 1 2t1 2zM288 484q3 9 5.5 17.5t3.5 10.5q5 11 0 18q-7 -13 -8.5 -18.5t-0.5 -27.5zM326 356l8 8l36 108q29 87 52 134l21 45q18 36 28 53q29 46 33 58q10 12 18.5 26.5t18 35.5t13.5 29q5 9 16 25t14 21q14 23 40 69 q12 22 22 30q7 6 11 17q9 29 29 40q17 9 26 32q7 18 35 52q69 84 99 115q17 17 51 49q12 12 34 32q53 49 103 63q65 17 105 -24q6 -6 9 -14q27 -71 28 -114q0 -13 3 -25q3 -16 -2 -41q-14 -70 -26 -102q-1 -3 -2.5 -10t-2.5 -10q-5 -27 -8 -33q-8 -18 -18.5 -54t-15.5 -50 q-43 -109 -45 -113q-30 -60 -52 -81q-2 -2 -24 -35q-20 -31 -71 -72q-6 -5 -17 -11t-15 -8q-3 -2 -7.5 -6t-5.5 -4q2 -7 4 -8q24 -15 39 -49q1 -3 5 -11l6 -12q28 -55 33 -129q1 -12 1 -26.5t-0.5 -32t-0.5 -26.5q0 -36 -6 -54q-1 -3 -1 -8q2 -34 -23 -102q-2 -5 -4.5 -15.5 t-4.5 -16.5q-9 -27 -17 -43q-26 -49 -41 -88q-27 -64 -49 -112q-9 -20 -42 -57q-48 -53 -61 -69q-60 -75 -157 -81q-31 -2 -92 0q-9 0 -37 7q-50 14 -101 43q-34 21 -46 42q-4 7 -22 25q-9 9 -26.5 27.5t-26.5 27.5q-3 3 -0.5 9t7.5 7q36 5 69 -12q8 -4 14 -16 q14 -25 30 -34q14 -8 22 -41l7 -4q7 -3 10 -6q42 -39 123 -16q46 12 89 53q34 31 81 92q12 16 55 90q3 -1 8.5 -3t8.5 -3l1 1q2 1 2 2q3 7 8.5 21.5t8.5 21.5q2 5 6 12.5t7 13.5t5 12q6 17 15 30q16 23 15 47q0 14 6 24q11 18 15 52l6 33q9 65 8 84q0 1 3 25q10 104 -3 155 q-11 45 -34 81q-11 16 -27 17q-6 1 -19 1t-19 1q-41 6 -62 23q-8 6 -25.5 17t-20.5 13t-7 10q-2 4 -0.5 8.5t5.5 5.5q8 2 12 2q24 -2 34 -4q46 -10 93 15q57 30 101 81q1 1 3.5 4t4.5 5t4 3q3 2 11 2q-7 -18 -8 -23q0 -1 2 -3q1 -1 3 -1q3 0 4 1q9 9 38 59q2 4 9.5 22.5 t15.5 26.5q6 6 6 15q1 12 11.5 32t12.5 30q19 35 36 99l1 5q1 5 2 7q11 23 21.5 67t17.5 61q0 1 3 17q6 66 14 100q2 8 1 12q-1 7 -4 20.5t-4 20.5q-9 3 -19 -5q-53 -43 -63 -49q-4 -2 -9 -9q-32 -42 -81 -85q-9 -8 -20.5 -25.5t-14.5 -21.5q-14 -18 -23 -25 q-24 -18 -48 -52q-32 -44 -48 -79q-6 -13 -17 -24q-24 -26 -44 -67q-19 -37 -31 -50q-18 -22 -30 -50q-40 -86 -64 -128q-2 -3 -13 -31q-10 -25 -13 -31q-12 -21 -22 -50q-8 -22 -14 -31q-8 -11 -18 -42q-21 -62 -44 -90q-16 -19 -20 -42q-5 -26 -20 -55q-23 -46 -22 -76 q0 -10 -9 -32q-1 -2 -4 -5.5t-3 -4.5q-28 -41 -11 -80l2.5 -5t2.5 -5.5t1 -4.5q0 -8 -6 -10q-1 0 -7.5 -2t-8.5 -2.5t-7.5 -1.5t-8.5 -0.5t-7.5 0.5t-8.5 2l-8 4q-13 9 -38.5 25t-29.5 18q-24 15 -34 65l-3 51q0 15 3 21q9 21 0 50q16 22 17 23q2 4 3 13t2 12q1 5 5 20 q6 17 21 90q3 14 10 41.5t10 40.5q16 70 46 188q1 3 3 11.5t3 12.5t2 11t0.5 13.5t-2.5 12.5l3 12q1 2 5 17t7 23q12 29 27 85t19 69q19 62 31 87q11 21 20 55q9 33 23 64q8 19 5 27q-1 0 -3.5 1t-3.5 0q-78 -42 -109 -65q-7 -6 -39 -25q-21 -12 -63 -34q-12 -6 -19 -8 q-18 -5 -57 -26q-46 -25 -85 -25q-16 0 -27 10q-33 29 -24 62q6 4 8 4q42 0 110 29q62 27 118 65q98 64 124 80q47 28 109 42q42 10 74 -19q6 -5 17 -16t17 -16q14 -12 16 -42q0 -2 -1 -4t-1 -4q-6 -61 -43 -108q-6 -8 -14 -26q-3 -7 -8.5 -21.5t-8.5 -21.5 q-33 -76 -45 -127q-1 -6 -27 -80q-13 -37 -65 -222q-5 -17 -17 -70t-22 -81q-3 -8 -5 -23t-3 -18q-2 -13 -6.5 -38t-6.5 -37q-6 -8 -6 -10l3 -6q0 1 1.5 2.5t1.5 2.5q0 2 -0.5 6t-0.5 6z" />
<glyph unicode="C" horiz-adv-x="1017" d="M27 364q-1 0 -1 1t-1 2q-2 -2 -2 -3q0 -2 1 -3zM682 933q18 30 26 45q14 24 15 39q1 8 7 20q20 46 33 130q7 48 -17 98q-6 15 -20 9q-2 0 -4 -2t-4 -2q-58 -28 -87 -43q-20 -10 -29 -17q-7 -6 -24.5 -19.5t-30 -23.5t-22.5 -21q-83 -85 -112 -137q-5 -9 -21 -32 q-35 -47 -91 -165q-4 -8 -19 -43q-5 -13 -5 -15q3 -29 -22 -47q-1 -1 -7 -15q-2 -4 -10 -22.5t-13 -27.5q-12 -23 -10 -40q2 -20 -8 -27q-11 -8 -19 -32q-10 -27 -23 -79t-15 -59l-6 -24q-1 -6 -4 -17t-5 -20t-3 -17q-1 -7 -4.5 -35.5t-6.5 -43.5q-9 -46 -2 -118 q3 -29 11 -66q16 -66 47 -117q42 -73 126 -80q45 -4 71 4q7 2 25 4q63 10 125 48q64 40 133 116q23 26 95 114q0 1 18 21t25 31q6 10 22 35t24 40q17 30 19 46q3 19 18 38q4 6 13 6t13 -6q13 -23 50 -43q2 -1 8 -7q4 -8 -3 -21q-5 -9 -14 -25.5t-16.5 -30t-14.5 -25.5 q-26 -41 -50 -68q-14 -16 -45 -53t-55 -64t-48 -50q-8 -8 -26 -22q-27 -20 -47 -34q-10 -7 -28.5 -20t-33.5 -23.5t-28 -19.5q-30 -20 -75 -25q-32 -5 -58 -13q-29 -10 -54 0q-10 3 -20 3q-16 -1 -44 5t-35 7q-34 5 -81 35q-2 1 -12 8.5t-17 11t-15 4.5q-2 0 -7 5 q-4 3 -16.5 15.5l-18 18t-15 15.5t-16.5 19.5t-12 19.5q-18 33 -35 81q-14 38 -17 74q-2 22 -2 67q0 12 4 20q3 6 5.5 17.5t3.5 15.5q7 21 -4 30q1 3 2.5 8t2.5 7q-5 4 -7.5 8t-3 10t-0.5 8.5t2 10.5t2 9q1 8 4.5 23t5.5 27t2 24q0 5 2 13q8 23 41 150q1 2 1 4t1 4 q8 20 22 57t26 67t24 56q53 114 57 122q59 116 85 150q26 50 106 141q61 71 111 103q6 4 30 23q20 16 53 25q16 4 50 10q114 18 187 -72q35 -42 43 -85q5 -26 2 -42q-4 -19 -6 -75q0 -14 -5 -20q-6 -10 -16 -28.5t-19.5 -33.5t-21.5 -26q-1 0 -49 -52q-11 -12 -27 -9 q-27 4 -37 24z" />
<glyph unicode="D" horiz-adv-x="1384" d="M681 -50q-3 5 -4 5q-5 0 -6 -3q-1 -2 1 -7q3 -1 4 0zM374 657q1 0 3 2q1 1 1 4q0 1 -2 2.5t-2 2.5q-2 -2 -2 -4q0 -3 2 -7zM339 538q-24 -30 -14 -64q5 28 7 33q3 6 4 17t2 15q0 1 1 1l1 2q3 4 0 4q-1 -1 -1 -3.5v-4.5zM352 593q12 17 10 29q-6 -4 -5.5 -15t-3.5 -15 q-1 -2 -2 -5t-2 -5q-1 -3 0 -4t3 0q1 0 1 4q0 2 -0.5 5.5t-0.5 5.5zM937 344q11 10 10 23q-1 21 10 44q16 33 46 99q12 26 21 51q21 56 38 103q68 193 83 278q20 113 21 116q4 20 7 29q23 85 29 144q0 5 1 10.5t2.5 12t2.5 10.5q9 51 2 84q-2 11 -4 29q-4 39 -28 71 q-12 -5 -15 -7q-60 -56 -89 -84q-7 -7 -20.5 -21t-20.5 -21q-21 -21 -40 -48q-23 -32 -71 -94l-18 -24q-18 -31 -64 -83q-21 -26 -23 -30q-21 -38 -37 -51q-6 -6 -20 -26q-6 -10 -18 -29.5t-18 -28.5q-19 -28 -45 -90l-36 -81q-3 -8 -9 -14q-18 -21 -21 -49q-2 -14 -14 -40 q-42 -98 -64 -127q-8 -10 -27 -58q-3 -7 -30 -83q-8 -21 -23.5 -63.5t-22.5 -63.5q0 -2 -1 -4.5t-1 -3.5q-5 -20 -15.5 -59.5t-15.5 -58.5q-5 -16 -21 -16q-26 0 -52 16q-15 10 -18 11q-41 11 -65 72q-16 41 -15 78q0 7 0.5 21t1 25.5t1.5 21.5q3 29 11 87q6 42 26 124 q29 109 52 183q5 17 20.5 74t27.5 87q30 79 40 111q11 34 61 171q2 6 6.5 17.5t6.5 17.5q1 3 3.5 7.5t4 8.5t1.5 8q0 3 4 17.5t3 22.5q-7 2 -8 2q-74 -32 -123 -73q-44 -37 -71 -44q-6 -2 -16 -8.5t-13 -7.5q-97 -49 -154 -69q-5 -2 -10.5 -3.5t-12 -3t-10.5 -2.5 q-3 -1 -9 -2t-11 -2l-10 -2q-27 13 -39 29q-4 6 -8 15q-2 6 1 12.5t8 8.5q20 8 23 8q56 6 128 42q121 60 185 110q26 20 105 62q44 24 89 18q8 -1 17 0q14 2 40 -10q41 -20 54 -33q11 -13 11 -27q2 -41 -18 -72q-40 -62 -76 -164q-30 -88 -42 -114q-6 -12 -26 -76 q-5 -15 -13.5 -41.5t-15.5 -48.5t-13 -42q-40 -132 -56 -199q-2 -8 -15 -53q-14 -42 -18 -86q-1 -13 -11 -75q-9 -63 -1 -131q0 -5 5 -5q2 0 5 5q1 2 5 12t5 16q11 49 63 196q27 75 65 156q5 11 81 185q7 16 15.5 34.5t19 41.5t16.5 35q4 10 7 15l99 177q17 29 69 116 q41 68 70 95q3 3 18 23q9 13 27.5 39.5t28.5 39.5q5 7 17 19q85 87 122 115q14 10 28 9q8 -2 12 -1q55 7 111 -40q20 -16 29 -25q40 -42 50 -114q7 -59 4 -97q-7 -72 -16 -129q-2 -19 -5 -25q-13 -28 -10 -66q2 -16 -4.5 -44t-6.5 -39q0 -4 -4 -12q-1 -3 -10 -16.5t-8 -24.5 q0 -6 -1 -13t-2.5 -15.5t-2.5 -13.5q-4 -32 -12 -44q-1 -1 -6 -20q-31 -106 -62 -184q-17 -42 -49 -126q-1 -3 -3 -7q-7 -13 -27 -57.5t-34 -67.5q-10 -17 -27 -49.5t-21 -39.5q-39 -70 -44 -81q-4 -9 -15 -23.5t-14 -18.5q-72 -108 -128 -167q-27 -27 -57 -62 q-23 -27 -65 -53q-76 -48 -186 -63q-17 -2 -50 4q-61 11 -93 27q-76 36 -110 61q-27 21 -31 39q-1 9 -12 17q-5 4 -14.5 11t-11.5 8q-2 8 6 20q7 12 18 7q29 -15 68 -20q25 -5 45 -21q23 -18 26 -41q2 -13 6 -21q7 -15 22 -17q32 -2 42 0q54 14 104 33q52 20 103 65 q17 15 20 16q9 5 22 10q5 2 12 -3.5t11 -5.5q10 7 30 19q-2 7 -5 9.5t-10 2t-8 -0.5q-10 21 37 68q3 -1 4 -3.5t1 -5.5t1 -4q2 -4 7 -5.5t8 1.5q13 13 14 15q12 22 21 31q10 9 12 17q5 13 17 29q9 10 13 22q7 18 21 36q3 4 9 17t13 18t7 15t4 18t12.5 18t11.5 14q11 17 9 27 q-1 5 0.5 8.5t7.5 8.5t7 6z" />
<glyph unicode="E" horiz-adv-x="1200" d="M1149 441q-24 -29 -45 -54l-6 -6q-39 -32 -59 -70q-3 -7 -8 -10q-7 -4 -13 -10.5t-9 -11t-8.5 -14.5t-7.5 -13q-1 -2 -4 -8.5t-6 -9.5q-50 -55 -60 -65q-9 -9 -49.5 -48.5t-60.5 -62.5q-13 -16 -39.5 -41.5t-36.5 -36.5q-16 -16 -26 -22q-64 -41 -95 -54 q-10 -4 -29.5 -14.5t-30.5 -14.5q-34 -14 -67 -24q-33 -9 -54 -8q-20 2 -37 -7q-12 -6 -37 -4q-4 0 -12 1t-14 1.5t-12 0.5q-51 -1 -125 32q-8 3 -22 13q-30 20 -36 22q-18 6 -36 28q-5 6 -14.5 16.5t-13.5 15.5q-46 57 -47 59q-1 1 -15 35q-4 10 -4 16q1 13 -4.5 35 t-5.5 31q0 6 0.5 12t1.5 14t1 12q6 56 39 137q21 50 49 88q6 8 16 24.5t16 24.5q10 13 50 58q11 12 32.5 33.5l29.5 29.5q34 34 55 46q11 6 14 16q-10 6 -30.5 18t-30.5 18q-23 15 -27 20q-50 59 -67 86q-13 19 -13 40q0 56 1 67q1 17 12 36q3 6 27.5 58t40.5 77 q44 68 74 103q19 22 37 51q23 38 76 95q9 10 27 28t23 24l6 6q68 55 80 62q30 18 65 45q31 25 80 37q76 18 129 5q71 -19 110 -59q28 -29 34 -76q3 -23 -5 -67q-1 -5 -8 -14q-11 -15 -11 -22q0 -21 -21 -40q-25 -24 -55 -69q-12 -16 -21 -20q-19 -9 -33 -2q-20 7 -23 22 q39 58 50 77q44 78 29 171q-1 7 -5 16q-1 1 -3 3.5t-3 3.5q-1 0 -5 -0.5t-6 -1.5q-32 -18 -75 -29q-30 -8 -82 -42q-19 -12 -74 -56q-81 -64 -163 -164q-38 -48 -55 -74q-6 -10 -21.5 -32t-23.5 -34q-11 -17 -15 -35q-8 -32 -30 -54q-24 -24 -32 -58q-7 -34 -15 -43 q-12 -54 6 -91q11 -23 37 -23q104 -3 189 37q20 9 57 24.5t51 21.5q5 3 15.5 7.5t15.5 6.5q38 21 78 -8q6 -4 16 -14q6 -8 3 -20q0 -2 -2 -4q-13 -27 -26.5 -38.5t-44.5 -20.5q-54 -15 -90 -45q-4 -4 -7 -5q-31 -14 -95 -61q-84 -62 -119 -100q-46 -49 -61 -58 q-9 -6 -15 -15q-8 -10 -24 -31.5t-24 -32.5q-47 -64 -77 -154q-20 -60 -15 -125q6 -71 61 -131q5 -6 17 -12t15 -8q42 -27 109 -20q50 4 100 12q53 8 117 35q2 1 5.5 3t5.5 3l66 39q50 29 113 94q53 54 107 107q1 1 34 37q23 24 65.5 68t76.5 80.5t62 70.5q6 7 17.5 21.5 t17.5 21.5q11 14 21 10q11 -4 13 -21q1 -3 2 -9t2 -11z" />
<glyph unicode="F" horiz-adv-x="1445" d="M822 703q0 -3 3 -10q1 1 4.5 2t4.5 3q4 5 6 15q27 94 46 134q0 3 -1 3q-5 2 -7 1q-12 -6 -14 -14q-1 -5 -3.5 -14t-4.5 -16.5t-4 -14.5q-17 -52 -30 -89zM899 905q11 0 13 13q0 2 -3 8q-2 2 -4.5 0t-3.5 -5q-2 -10 -2 -16q-1 -1 -2 -1q-2 -1 -2.5 -2t2.5 -3q1 1 1 3t1 3z M687 314q9 6 9 7q1 2 9 26q9 11 25 58q26 77 35 93q1 2 10 28l12 36l-3 7l-2 -1l-2 -1q-16 -32 -22 -49q-7 -19 -21.5 -59t-22.5 -59q-12 -29 -8 -53q-11 0 -15 -13q0 -1 -3 -20q-3 -2 -5 -5q-3 -5 2 -5q2 0 2 3v7zM453 574q34 2 50 5q43 8 71 11q20 3 45 11q91 29 111 39 t24 32q17 85 47 157q11 26 27 80q13 44 32 78q5 7 9.5 22.5t6.5 20.5q36 91 46 122q2 5 -1 8.5t-7 2.5q-5 -1 -26 -3t-32 -5q-69 -17 -156 -51q-5 -2 -31 -15q-42 -23 -87 -42q-1 -1 -8.5 -4t-10.5 -5l-30 -22.5t-33 -25.5t-27 -24t-27 -30q-5 -7 -29 -31q-14 -14 -26 -2 q-21 21 -23 25q-7 14 -18 28q-13 16 -9 45q0 4 5 12q2 3 5.5 7t4.5 5q61 82 154 129q5 3 18 9t21.5 11t15.5 11q4 4 11 6q17 5 47 19.5t45 19.5q12 4 36 13t36 13q74 24 113 31q44 8 119 25q13 18 21 46q6 23 18.5 30t35.5 1q29 -7 46 -21l33 -24h18q96 16 112 19 q5 1 42.5 7t56.5 13q14 -1 41.5 4t41.5 4q6 0 16 4q52 24 96 30q18 3 28 7q75 23 143 53q20 9 78 32t89 38q44 21 65 38q40 33 68 -16q13 -23 16 -52q5 -31 -20 -53q-13 -11 -24 -16q-14 -6 -44.5 -20t-53.5 -24t-45 -17q-33 -11 -74 -31q-24 -12 -71.5 -27t-63.5 -22 q-12 -5 -125 -37q-15 -4 -25 -5q-70 -9 -137 -24q-15 -3 -43.5 -9.5t-42.5 -9.5q-18 -3 -51.5 -7.5t-44.5 -6.5q-7 -1 -20.5 -3.5t-20.5 -3.5q-23 -3 -29 -26q-2 -6 -3 -8q-1 -1 -2.5 -4.5t-2.5 -4.5t-2.5 -3t-4.5 -1.5t-6 2.5q-3 3 -9 -7q-9 -16 -19 -37q-3 -5 -6 -15.5 t-6 -15.5q-21 -44 -56 -146q-22 -63 -34 -85q-8 -13 -9 -24q-3 -24 -21 -64q-8 -17 -1 -29q2 1 6.5 2.5l7.5 2.5q38 20 56 30q71 40 136 56q19 5 55.5 14.5t54.5 13.5q30 6 52 -10l1 -1q1 -1 2 -1q8 -7 7 -15q-2 -11 -11 -11q-14 -1 -37.5 -9.5t-27.5 -9.5q-34 -10 -56 -27 q-9 -6 -48 -26q-44 -20 -66 -29q-27 -12 -44 -24q-9 -6 -32.5 -16.5t-34.5 -19.5q-8 -7 -19.5 -13.5t-26 -13.5t-22.5 -12q-1 -3 -11 -28.5t-12 -40.5q-1 -11 -8 -24q-13 -28 -33 -86q-4 -10 -42 -106q-3 -7 -8.5 -21.5t-8.5 -21.5q-42 -111 -101 -222q-5 -9 -13 -27 q-5 -12 -7 -15q-12 -15 -67 -92q-2 -2 -6.5 -8t-6.5 -9q-14 -29 -55 -50q-27 -15 -52 -14q-8 0 -26.5 -1t-28.5 0q-83 8 -116 19q-7 3 -25 5q-29 2 -71 24q-72 37 -86 44q-39 19 -55 56l-6.5 13t-8 15.5t-6.5 13.5q-18 36 -3 73q1 4 4.5 11.5t5.5 11.5q7 13 13 9 q9 -6 12 -11q3 -8 9 -24.5t8 -22.5q13 -35 15 -40q5 -18 20 -36q2 -2 6.5 -8t6.5 -9t4.5 -8.5t2.5 -10.5q1 -11 18 -22q17 -12 30 -15q88 -29 175 -13q42 8 70 37q5 5 20 18.5t22 22.5q22 29 27 42q4 10 26 32q1 1 5.5 1.5t6.5 -0.5q7 -3 11 2q13 18 14 20q24 48 35 72 q7 15 8 19q2 16 14.5 44t13.5 31q6 15 1 23q-2 5 2 16q3 7 9 18t8 16q1 3 2.5 10t4 11.5t6.5 8.5q4 3 4 11q-1 18 13 39q6 10 6 16q-1 11 6 29.5t8 26.5q0 3 5.5 13t2.5 17q-8 2 -11.5 1.5t-10 -3t-10.5 -3.5q-19 -3 -78.5 -12t-92.5 -13q-61 -7 -100 8q-22 9 -31 26 q-8 16 -22 50q-2 5 3 11.5t11 5.5q13 -2 39.5 -6t39.5 -6q20 -4 26 -12q-1 0 -3.5 -0.5t-4.5 -0.5q3 1 7 1z" />
<glyph unicode="G" horiz-adv-x="1236" d="M378 802q-3 -15 -14 -26q-6 -6 -14 -1q-1 1 -3.5 0.5t-3.5 -1.5q-6 -9 -17.5 -26.5t-17.5 -26.5q-3 -5 -3 -16q2 -39 -26 -58q-6 -4 -13 -14.5t-12 -13.5q-7 -5 -18 -27q-7 -12 -9 -14q-18 -20 -18 -42q0 -8 -7 -29q-9 -23 -27 -70.5t-27 -71.5q0 -1 -1 -3.5t-1.5 -4.5 t-0.5 -4q-1 -19 -10 -52.5t-10 -50.5q-1 -12 -4 -35.5t-3 -35.5q-1 -16 4 -37q16 -58 55 -99q2 -2 14 -16.5t21 -19.5q19 -13 39 -14q46 -4 75 8q10 4 64 19q58 14 106 59q111 103 197 209q32 39 59 77q14 19 26 48q1 4 27 52q16 30 19 46q-5 6 -16 2q-98 -36 -147 -53 q-17 -6 -77 -20q-8 -2 -13 -2q-18 0 -54 -1t-55 -1q-27 0 -50 20q-3 3 -3 7q0 6 8 8q63 9 88 13q64 10 146 41q52 20 79 28q37 11 84 39q26 16 40 23q22 11 45 5q34 -8 61 -30q21 -18 20 -44q-2 -27 -7 -50q-15 -64 -50 -179q-23 -74 -34 -126q-8 -32 -16 -60 q-9 -29 -15 -57q-4 -18 -16.5 -65.5t-15.5 -73.5q0 -2 -15 -49q-12 -35 -17 -60q-1 -5 -17 -48q-2 -5 -16.5 -36.5t-19.5 -48.5q-8 -26 -30 -70.5t-29 -60.5q-16 -40 -66 -74q-13 -8 -40 -12q-1 0 -50 -3q-18 -1 -50 11q-53 21 -79 53q-1 1 -1 11q42 -11 71 0q45 18 64 45 q22 33 55 90q3 5 6.5 16.5t4.5 14.5q6 15 19 44.5t19 44.5q39 95 55 150q31 107 44 167q2 8 7 22.5t6 17.5q1 2 0 6.5t-1 6.5q-16 -8 -33 -29q-25 -31 -83 -83q-6 -5 -17.5 -15.5t-17.5 -15.5q-76 -68 -160 -90q-66 -16 -87 -16q-110 0 -182 65q-12 12 -20 15q-14 4 -31 21 q-68 63 -100 145q-8 20 -9 32q-5 96 -1 126q2 18 4 25q39 148 56 191q5 14 34 72q64 127 72 143q17 33 79 119q52 74 79 110q54 70 72 87q1 1 2.5 2t2.5 2t1 2q8 13 20 25t27 25.5t23 21.5q20 20 23 25q6 8 14 14q23 15 44 39q24 29 56 50q80 52 122 75q32 18 106 43 q20 7 45 5q21 -2 59 -4q55 -1 126 -35q21 -9 33 -18q28 -20 39 -32q50 -53 28 -129q-9 -31 -16 -52q-1 -4 -15 -26q-24 -37 -27 -43q-4 -7 -10.5 -27.5t-13.5 -29.5q-3 -4 -17.5 -19.5t-21.5 -24.5q-5 -7 -47 -54q-7 -9 -19 -7q-23 2 -34 14q-2 2 -7 6t-8 7.5t-3 8.5 q44 44 66 65q19 19 26 43q11 33 31 83q15 37 24 89q7 45 -12 91q-4 9 -14 7q-3 0 -4 -1q-22 -9 -64.5 -18t-53.5 -12q-83 -23 -151 -64q-14 -8 -39 -24.5t-32 -20.5q-12 -8 -13 -16q-1 -12 -17 -28q-10 -10 -16 -14q-19 -14 -57 -56q-19 -21 -48 -47q-53 -47 -107 -124 q-14 -19 -44 -57q0 -1 -13 -10q-9 12 -15 1q-2 -4 -2 -7l1 1q-5 -5 -5 -7.5t5 -10.5h-1z" />
<glyph unicode="H" horiz-adv-x="1638" d="M531 883q-1 0 -3 0.5t-3 0.5l2 -2q3 0 4 1zM341 230q1 0 1 1l2 1l-2 2l-2 -1q-2 -1 -2 -2l1 -1h2zM1022 -7q0 1 -1 3t-1 3l-2 -2q0 -2 2 -6zM1015 92q-1 0 -1 -1l-2 -1l2 -2l4 2l-1 1q-1 1 -2 1zM535 846q-1 1 -2 2.5t-2 2.5l-2 -1q-1 0 -1 -1q-2 -7 3 -10q1 0 4 7z M443 611q-7 -4 -6 -9q0 -3 3 -3q3 -1 5 1.5t2 6.5zM1012 -57q1 3 3 6t3 5q0 3 -2 7q-5 -3 -5 -4q-1 -2 0 -6.5t1 -7.5zM262 -64l-4 -4v-4q5 -3 15 -7q3 0 3 2v7q-2 2 -7.5 3.5t-6.5 2.5zM1028 61q-3 -5 -7 -15q-1 -3 0.5 -6t4.5 -3q6 0 7 3q6 9 -5 21zM1037 91 q1 -1 2.5 -3.5t2.5 -3.5q2 -2 5.5 0t4.5 5t2.5 9.5t2.5 10.5q1 6 2 18t3.5 21t7.5 17q2 3 0 8l-3 3h-4q-6 -8 -6 -10q-2 -7 -4.5 -21.5t-6 -25.5t-10.5 -20q-1 -1 0 -4t1 -4zM1153 436q-2 0 -5.5 -1t-5 -1.5t-4 -1t-3.5 -1.5l-2.5 -2.5t-1.5 -3v-4.5q1 -6 -4.5 -12.5 t-6.5 -8.5q-2 -5 -2 -15t-2 -14q-3 -12 -11 -23q-3 -6 -3 -11q2 -18 -18 -55q-6 -10 -5 -14q3 -20 -13 -47q-12 -3 -6 -15q1 -2 2.5 -8t2.5 -8q1 -3 6 -3t8 3t3 8q2 16 11 46.5t11 46.5q1 9 11 27q18 34 17 56q0 6 4 16q1 4 4 9.5t4 9.5zM1175 544q9 2 11 4q11 11 16 30 q1 3 6 17.5t7 22.5q7 33 7 41q0 5 5.5 18t2.5 22q-2 5 4.5 11.5t7.5 9.5q8 26 16 43q-5 9 3.5 22t5.5 21q9 11 15.5 36t8.5 30q1 3 -1 6t-5 2q-19 -3 -32 -7q-2 0 -2 -3q-2 -5 4 -7q2 -1 5.5 -2t5.5 -1q0 -7 -1 -9q-3 -9 -9.5 -27.5t-9.5 -28.5q-2 -6 -4 -16.5t-4.5 -19.5 t-6.5 -16q-6 -10 -10 -29.5t-7 -26.5q-16 -42 -19 -64q-3 -19 -16 -32q-1 -1 -5 -4t-6 -6t-3 -7l3 -9t3.5 -11t3.5 -10zM482 747q2 -3 7 -9.5t8 -10.5q14 32 26 76q2 7 0 13q0 2 -5 7q-6 6 -10 4q-10 -5 -5 -14q1 -2 4 -5t4 -5q-11 -11 -16 -15q-12 -10 -11 -25q1 -3 -2 -17 q0 -3 -1 -9q0 3 0.5 6t0.5 4zM392 414q-2 -1 -7.5 -6t-8 -7t-8 -4t-11.5 -1q1 -2 2.5 -7t2 -7.5t1 -6.5t-1.5 -7.5t-5 -6.5q-2 -2 -0.5 -5t6 -5.5t9.5 -3.5q2 7 11 30.5t9 37.5q8 10 3 16q-8 8 -22 8q11 11 22 8q2 -1 7 0t6 1t3.5 -2t3.5 1h-8q1 3 -0.5 8.5t-1 10t5.5 7.5 q2 1 3 6t2 6q5 11 9 36t10 36q0 5 -4 5q-7 0 -8 -2t-7 -20q-1 -3 -7.5 -8.5t-7.5 -10.5q-17 -13 -13 -33q1 -8 -7 -12q-3 -2 -10 -13q-8 -10 3 -23q3 -4 9.5 -13t9.5 -13zM1292 907q11 9 12.5 13t1.5 20q-2 -4 -6.5 -16t-6.5 -18q-2 -2 -4 -6q-1 -2 0.5 -3.5t3.5 -0.5 q1 0 1 4q0 3 -2 7zM282 194q-3 4 -8.5 12t-8.5 12q-20 -5 -41 -13.5t-35.5 -15t-38.5 -19.5t-34 -19t-37 -22.5t-34 -20.5q-12 5 -20 14.5t-11 16t-9 21.5q-8 19 6 31q46 42 78 56q10 4 35 19t40 19q14 6 16 6q18 3 52 16t52 17q15 3 20 20q2 6 5 18t5 18q5 16 9.5 21 t21.5 15l-1 3q-1 3 -2 4q-11 11 -4 22q10 15 6 28q-1 6 4 15q3 6 10 18.5t11 18.5q-3 12 4 41q2 9 5.5 26t5.5 27.5t6.5 25t10.5 26.5q4 8 4 21q3 42 21 90q5 15 24.5 69.5t31.5 84.5q5 10 19 56q14 40 35.5 114.5t26.5 90.5q4 14 4 21q0 2 0.5 6t0.5 6.5t-1.5 5t-4.5 4.5 q-4 2 -19 -5q-36 -19 -77 -44q-38 -24 -55 -39q-21 -19 -69 -47q-58 -35 -73 -50l-30 -18t-32 -19.5t-30 -16t-34 -14.5q-52 -17 -73 -19q-15 -1 -27 8q-14 10 -31 34q-3 3 -3 8q-1 6 -1 16q4 4 9.5 5.5t12.5 1.5t10 1q62 12 142 60q9 5 114 80q136 97 170 117q39 24 73 33 q59 16 95 -27q6 -7 16 -14q17 -11 32 -19q15 -9 29 -30q15 -26 6 -52q-22 -64 -32 -96q-5 -16 -15 -48.5t-15 -48.5q-17 -50 -22 -64q-37 -92 -82 -234q-15 -46 -31 -114q-17 -70 -32 -114q-1 -4 -27 -101q-1 -3 2 -6.5t5 -2.5q19 3 20 3q13 3 39 10t39 10q34 8 37 9 q91 13 246 59q59 17 106 26q30 6 90 22q41 11 46 17q2 3 15 39q11 30 27.5 85t23.5 76q49 149 63 183q34 84 43 119q3 15 24 63q23 55 31 105q2 14 5 20q18 43 32 143q1 7 5 16q5 12 16 12q21 0 25 -1q29 -6 69 -39q7 -7 8 -9q16 -37 18 -43q6 -17 1 -42q-11 -51 -48 -165 q-4 -9 -9 -13q-15 -9 -13 -34q3 -25 -19 -53q-9 -11 -11 -17q-61 -163 -74 -202q-16 -47 -53 -165v-6.5t-1 -7.5q9 0 12 1q80 34 85 37q17 9 34 15q19 6 31 -8q11 -13 14 -21q11 -25 -4 -48q-23 -35 -50 -35q-8 -4 -23.5 -7.5t-20.5 -5.5q-9 -3 -38 -18q-40 -20 -62 -25 q-17 -4 -23 -22q-27 -87 -47 -154q-2 -7 -2 -20q0 -19 -12 -31q-6 -6 -12 -26q-6 -22 -18.5 -66.5t-18.5 -67.5l-15 -57q-5 -20 -5 -25q0 -17 -8 -36q-10 -25 -6 -54q4 -21 5 -29q1 -7 -1 -21q-1 -8 -7.5 -13t-13.5 -3q-61 18 -86 42q-35 35 -22 81q5 16 7 37q2 26 14 37 q5 5 7 20q7 46 17 78q5 14 16 18q0 -1 2 -4t2 -5l1 3q-1 1 -3 2.5t-3 2.5q1 2 4 7t4 8q11 -3 14 -2.5t6 7.5q4 7 3 10t-9 8q-2 -4 -6.5 -12t-7.5 -12v9q-13 24 0 48q6 9 1 20q-4 10 1.5 26.5t5.5 21.5q0 1 6 7t16 18q3 9 4.5 29t6.5 30q6 13 -7 31q-6 2 -8.5 2t-8.5 -2 t-8 -2q-9 -1 -26.5 -5t-26.5 -6q-27 -4 -127 -30q-75 -20 -82 -20q-5 0 -8 -1q-55 -19 -136 -31q-13 -2 -16 -4q-14 -8 -44 -14q-17 -4 -36 -9t-42 -11.5t-36 -9.5q-20 -6 -26 -25q-2 -4 -4 -16q-30 -128 -44 -193q-15 -74 -27 -145q-4 -28 -8 -84q-1 -6 1.5 -19t2.5 -15 q1 -14 3 -41.5t3 -41.5q-7 -10 -21 -9q-53 7 -85 42.5t-37 87.5q-2 20 -2 59q0 16 11 21q9 4 7 8q-3 4 -2 12t2 11.5t4.5 11t4.5 10.5q10 33 13 69q0 2 0.5 4t1 3.5l1.5 4.5t2 5q-3 2 -8 6t-8 6q-3 3 -3 8.5t4 6.5q2 1 9 3t10 4l9 18q4 6 14 2l2 -1q1 -1 2 -1l5 -2q3 2 10 6 t10 6q1 2 1.5 3.5l1 3t0.5 2.5q1 4 6.5 25t10.5 32q3 9 2 16q-2 10 6 28q1 3 -1 20q0 2 -4 2q-7 0 -7 -2q-4 -17 -10 -23q-5 -6 -1 -20q2 -7 -5 -10q-16 -6 -20 -30q-2 -16 -13 -26q-4 4 -4 18t-8 16q-1 0 -0.5 2.5t1.5 4.5q0 1 2 1l2 1q2 1 5 3.5t5 3.5q0 1 -0.5 4.5 t-1.5 4.5q-11 11 0 22q1 1 2 3t2 3t2 3.5t2 3.5q2 3 0 3q-1 1 -3 0v-3v-7z" />
<glyph unicode="I" horiz-adv-x="1071" d="M658 891v2q1 1 1 2q0 7 -2 1l-1 -1v-2q0 -2 2 -2zM542 448q0 -3 1 -4q5 -5 5 2q0 3 -2 3l-2 -1h-2zM506 432q-3 -6 -3 -7q0 -9 1 -13q1 -5 5.5 -7.5t9.5 -0.5q6 2 8 8q4 9 -5 14q-3 2 -9 4t-7 2zM539 480q2 -1 5 -3.5t4 -3.5q8 -4 10 3q6 18 8 32q1 3 -1.5 5t-5.5 1 q-11 -5 -11 -6q-2 -4 -9 -28zM612 737h8q13 4 12 14q-2 8 1 12q5 7 8 15.5t5 19t4 16.5t0 17l-2 3l-8 -3q-2 -3 -2.5 -11t-4.5 -12q-20 -18 -23 -26t0 -33q0 -4 2 -12zM624 701q-24 15 -31 12t-9 -28v-4q1 -6 -2 -20.5t2 -20.5q-10 -16 -15 -25q-3 -6 -3 -12q0 -2 4 -6 q2 -3 4 -1q16 10 21 31q0 1 1 8t4 11q8 8 24 55zM494 326q12 -7 6 -17q-2 -3 -15 -25q-28 -2 -30 -24q9 -4 9 -5q1 -1 6 -14l3 -3q4 -3 12 0t9 8q0 6 -6 10q-8 6 -4 13v16q2 0 6 -0.5t6 -1t5.5 0.5t5.5 3q13 19 11 53q-8 2 -12 4q-7 4 -4 10q2 3 6.5 9t5.5 8l-2 7 q-2 -1 -7 -2.5t-8 -2.5q-6 -16 -9 -23q1 -5 3.5 -13.5t3.5 -11.5h-8q-7 0 -4 -4q3 -1 4 0q4 2 7 5zM561 546q1 0 6 -1t5 0q7 6 10 12q5 9 -4 14q-2 1 -5.5 2.5t-5.5 2.5q-18 -16 -6 -31q-14 -2 -23 -4l-4 -7q0 -3 3 -3q15 -5 21 7q1 2 3 8zM373 -35q8 -4 10 2q1 2 6 32 q-7 2 -11.5 7t-9 12t-6.5 9q-1 9 8 12q1 0 1.5 0.5t1.5 0.5q6 2 10 12q9 22 18 27v1q1 -7 -4.5 -23.5t-2.5 -26.5q2 2 5.5 8.5t5.5 9.5q8 9 5 18q0 4 1 4q7 2 11.5 14t10.5 14q3 -4 9.5 -12.5t9.5 -13.5l-12 -3q0 -1 1 -3.5t2 -3.5h4q3 5 4 11q10 5 5 13q-9 16 -23 11 q-1 3 -3.5 9t-3.5 9t1 7q1 1 3 1.5t3 -0.5q6 -5 18 1q2 -2 5 -6.5t4 -6.5q1 -1 3 -1q0 8 1 8q-2 1 -7 2.5t-7 2.5q-8 18 -5 23q3 -1 9.5 -4t10.5 -5q8 22 9 31q1 12 -12 25q-2 2 1 5.5t3 4.5q-4 2 -12 6.5t-12 6.5l-1 -1q9 18 5.5 26.5t-22.5 18.5l1 -1q2 20 11 25 q21 12 21 52q0 2 -9 15q5 49 31 105q3 6 1 12q-4 12 4 42q11 42 33 124t33 124l42 150q26 103 36 130q2 6 10 45q0 1 -4 9q-22 -10 -34 -15q-3 -1 -16 -5.5t-19 -8.5q-46 -23 -132 -44q-6 -2 -18 -5.5t-18 -4.5q-15 -4 -44.5 -12.5t-44.5 -12.5q-36 -10 -80 2q-24 7 -32 25 q-10 20 -14 30q-8 20 5 36q17 0 21 -1q24 -6 71 4q20 4 118 29q30 8 115 41q5 2 22.5 10.5t27.5 11.5q16 5 44 18t41 18q10 3 20 21q6 10 21 12h12q18 -3 32 7q2 2 8 4q26 10 78 32t78 32q15 7 28 8q21 2 61 16q31 11 69 19q76 17 146 7q8 -1 25 -3t25 -3q23 -3 42 -19 q12 -10 15.5 -29t-4.5 -33q-11 -21 -37 -24q-29 -3 -63 2q-43 7 -59 5q-73 -6 -108 -16q-14 -4 -42.5 -12t-42.5 -12q-26 -7 -72 -25t-59 -22q-1 -1 -4 -3t-4 -3q-2 -6 1.5 -19.5t0.5 -20.5t-6.5 -21.5t-4.5 -19.5q-2 -7 -17.5 -60.5t-26.5 -80.5q-6 -15 -9 -32 q-23 -104 -45 -163q-1 -2 -2 -8t-3 -8q-13 -18 -23 -55.5t-14 -46.5q-4 -8 -2 -21q1 -14 -10 -58q-1 -5 -3 -14.5t-4 -13.5q-8 -29 -10 -32q-5 -7 -9 -16t-6 -16t-4.5 -18.5t-3.5 -16.5q-6 -26 -19 -77.5t-20 -77.5q-10 -41 -31.5 -122.5t-31.5 -122.5q-4 -13 -11 -38.5 t-10 -38.5q-3 -11 -5 -34q2 0 6 -1t6 0q32 7 92 31q102 41 144 47q20 3 60.5 9t60.5 9q14 2 21 2q26 -1 37.5 -10.5t18.5 -30.5q3 -10 2 -12q-3 -13 -5 -16q-2 -2 -6.5 -5.5t-6.5 -5.5q-21 -21 -51 -25q-42 -6 -124 -22q-3 -1 -37 -9q-21 -6 -89 -26q-1 0 -7 -2t-9 -4 q-11 -5 -23.5 -9.5t-28.5 -9t-24 -6.5q-42 -12 -53 -13q-8 -1 -36 -10q-14 -5 -16 -19q-1 -10 -14 -12q-1 0 -3.5 -1t-4.5 0q-28 3 -39.5 2t-38.5 -6.5t-39 -7.5q-79 -11 -104 -12q-57 -2 -97 7q-14 3 -34 16q-5 4 -9 9q-10 17 -28 51q-3 5 2 11.5t11 5.5q9 -2 27 -5.5 t27 -4.5q55 -9 97 2q9 2 54 7q2 1 8 2t8 2q3 1 11 3.5t13 3.5q33 3 50 40q2 4 5 13t5 14q6 16 10 23q6 9 19 2q5 2 5.5 9.5t1.5 8.5q2 3 5 9.5t5 9.5q4 -1 5 -4t0.5 -7.5t-0.5 -5.5l-3 -6t-2.5 -6t0 -6t2.5 -8q5 8 3 27z" />
<glyph unicode="J" horiz-adv-x="1245" d="M1001 892l3 1q0 1 -0.5 2t-0.5 2l-2 -1v-4zM770 76q16 14 11 34q-2 5 0 7.5t3 2.5h5h3q3 4 10 11.5t10.5 12.5t8.5 12.5t7 14.5q13 37 17 42t5 11t0.5 13.5t-0.5 11.5q1 1 8.5 7t9.5 10q21 38 28 74q8 46 15 66q7 18 10 44q4 23 4 50q0 11 8 29.5t9 21.5q18 58 18 90 q0 2 2 8q15 44 26 119q1 7 2.5 20t3 23.5t3.5 19.5q4 15 -3 40q-2 -5 -6.5 -19.5t-5.5 -21.5q-2 -14 -7.5 -37.5t-6.5 -32.5q-10 -55 -16 -69q-3 -6 -3 -13q-3 -28 -14 -78.5t-14 -69.5q-3 -13 -5 -16q-10 -14 -10 -36q0 -8 -3 -16q-3 -6 -5.5 -21.5t-8.5 -22.5 q-5 -6 -5.5 -21.5t-4.5 -21.5q-6 -7 -6 -20t-11 -44q-2 -7 -8 -20t-8 -19q-2 -4 -4.5 -13.5t-6 -16.5t-9.5 -11q-2 -1 -2 -7q-1 -11 -4 -23t-6 -20t-8.5 -21.5t-7.5 -19.5q-3 -8 -13 0q-6 5 -11 0q-2 -2 -4 -7l-2.5 -5t-2.5 -5.5t-1 -4.5q-1 -6 -7.5 -7.5t-7.5 -3.5t-2.5 -6 t-2.5 -6q-4 -7 -4 -9.5t2 -4t11 -5.5q1 -2 4 -5t4 -5q4 -4 7 2q0 1 1 4t1 4zM712 -2q-2 3 -7.5 7t-8.5 7q2 3 5.5 9t5.5 9q-3 2 -14 10q-9 6 -15 -2q-3 -4 -9 -12.5t-8 -11.5q-3 -2 -4 -1q-4 4 -4 6q7 12 20.5 36.5t20.5 36.5l15 30q1 2 2 6t2 6q9 12 16.5 25.5t15.5 33 t12 27.5q38 83 48 112q12 34 34 104q1 3 1.5 9t0.5 8q12 81 32 135q0 11 6.5 28t7.5 24q1 6 2.5 17t3 20t3.5 17q3 11 8 42t10 48q5 15 11.5 43.5t8.5 38.5l3 21q6 47 15 65q2 4 3 9.5t1.5 12.5t1.5 11q21 101 48 197q1 5 10.5 38t13.5 51q4 16 -2 22t-23 4q-5 0 -8 -1 q-114 -26 -147 -38q-41 -17 -60 -19q-6 0 -12 -4q-29 -18 -54 -21l-8 -4q-23 -16 -52 -25q-12 -4 -34 -13.5t-25 -10.5q-9 -4 -27.5 -11.5t-27.5 -10.5q-3 -1 -16 -5.5t-19 -8.5q-38 -22 -122 -44q-30 -7 -68 16q-6 4 -11 12q-24 35 -36 47q-5 5 -1.5 11.5t10.5 7.5 q8 2 12 1q3 0 28 -9q26 -10 54 1q41 15 70 28q131 58 161 71q31 13 160 67q79 33 164 54q64 15 117 6q14 -2 21 -2q35 0 69 -27q12 -9 19 -22q3 -7 10.5 -18.5t12.5 -21.5t7 -20q2 -15 0 -21q-17 -48 -37 -129q-7 -29 -25 -85l-3 -12t-3.5 -13t-5 -11t-8.5 -10q-4 -3 -9 -23 q-6 -26 -27.5 -109t-29.5 -129q-15 -87 -33 -174q-32 -157 -64 -266q-25 -82 -83 -198q-12 -25 -36 -77q-14 -28 -26 -37q-18 -14 -35 -42q-26 -40 -44 -56q-4 -4 -12 -12.5t-15 -14t-15 -8.5q-73 -26 -106 -25q-57 2 -79 11q-23 4 -49 11t-43.5 13.5t-47.5 18t-44 16.5 q-59 22 -124 63q-26 16 -39 25q-7 5 -36 29q-5 4 -14.5 12t-14.5 12q-14 11 -20 27q-16 40 -54 69q-13 9 -4 26l2 2q1 3 2 5q14 26 36 5q27 -25 48 -33q39 -14 65 -51q2 -2 5 -6.5t5 -7t4.5 -7t4 -7.5t2.5 -7.5t1 -9.5q0 -12 13 -25q2 -2 8 -9t9 -10q86 -72 192 -93 q84 -17 168 23q4 2 16 14q5 5 14.5 15t14.5 15q2 2 14 10q5 -6 15 -16q4 -5 24 -8q2 0 5 -2t4.5 -2.5t4.5 1.5q10 13 27 19q2 0 2 7q0 2 -0.5 6.5t-0.5 6.5q8 0 12 1t5 4t-1 4q-5 3 -7 2q-9 -4 -8 -12z" />
<glyph unicode="K" horiz-adv-x="1269" d="M329 678q-2 -2 -2 -3t1 -3q2 2 2 3v1zM252 451v1l1 2q-1 1 -2 1q0 -1 -1 -3q1 -1 2 -1zM854 764q-1 0 -3.5 1t-3.5 0t-4 -6q1 0 3 -1t3 0q3 1 5 6zM1217 1110l-3 -2q0 -1 1 -3.5t1 -3.5l6 3q-1 1 -2.5 3t-2.5 3zM381 792v4q-2 8 -8 7q-1 0 -3 -2.5t-1 -3.5q1 -2 4.5 -4.5 t4.5 -3.5zM304 579l-3 6q-1 1 -7 -2q0 -1 1 -3q1 -3 2 -4q1 0 7 3zM324 649l-1 1q-1 2 -2 2q-3 0 -3 -1q-3 -6 -3 -7t3 -7l5 5q1 2 1 7zM803 725l-1 1q-1 2 -2 2q-24 -2 -45 -25q-3 -3 -3 -7q0 -2 4 -3t7 0q7 5 20 14t20 14v4zM807 781q-5 -2 -22 -13t-29 -13l-6 -6 q-2 -2 0 -4q2 -5 4 -5q15 3 16 4q27 16 37 37zM619 650q22 6 29 13q2 2 0 4t-3 2q-12 -1 -25 -20h-4q-2 -1 -6 -5q2 -2 3 -2q6 3 7 4q-1 0 -1 4zM687 691q-16 2 -22 -7q-4 -8 3 -10q6 0 7 1l6 9t5 8q14 0 21 12q1 2 -1 4l-3 1q-6 -6 -16 -18zM1119 1023q1 1 4.5 6.5t5.5 7.5 q8 8 15 0q4 -4 6 -5q12 -7 18 5q1 3 3.5 10t5 11t7.5 7q11 6 6 12q-3 3 -12 1q-2 -1 -6.5 -3t-6.5 -3q-5 6 -15 20q-9 -2 -17 -21q-5 -13 -17 -11q-3 0 -10 7q-2 4 0 8q4 7 10 13q3 3 11 10t12.5 11t10 11t8.5 14q14 11 26 25t25.5 33.5t21.5 28.5q1 2 13 22q1 1 4.5 8 t6.5 9q20 17 43 67q14 28 27 62q10 26 13 40q2 9 19 46q11 21 6 37q-1 6 4 10.5t12 3.5q23 -3 43 -17q3 -2 8 -6.5t8 -6.5q21 -10 35 -41q13 -23 1 -40q-7 -10 -11 -40q-5 -26 -23 -63l-39 -75q-23 -44 -41 -63q-5 -5 -14 -21q-9 -17 -22 -34.5t-30 -38.5t-25 -32 q-5 -7 -29 -31q-5 -5 -20 -18.5t-24.5 -23.5t-18.5 -20q-35 -41 -101 -94q-21 -17 -62 -51t-62 -51q-26 -20 -62 -43q-25 -15 -40 -30q-20 -20 -41 -31q-32 -18 -118 -80q-42 -29 -73 -41q-11 -5 -112 -48q-6 -3 -12.5 -5.5t-14.5 -5t-12 -4.5q-5 -2 -15 -10q30 -43 69 -82 q15 -16 45 -47.5t45 -47.5q10 -9 29 -28l28 -28q62 -62 78 -88q5 -7 15 -14q74 -51 146 -115q8 -8 25.5 -22t26.5 -21q3 -3 9.5 -8t10.5 -8t8.5 -8t7.5 -11q2 -3 13 -10q30 -20 46 -30q19 -11 39 -11q61 0 101 -6q51 -8 88 18q3 2 39 16q12 5 23 -6q12 -11 22 -25 q16 -22 -10 -28q-20 -5 -43 -24q-17 -15 -46 -31q-22 -14 -42 -19q-89 -27 -183 -7q-22 5 -55 22q-81 44 -141 99q-10 9 -111 91q-27 22 -32 27q-17 17 -49 50t-48 50q-8 9 -25 25.5t-26 24.5q-14 14 -20 22q-10 15 -23 29t-34 34t-27 26q-28 28 -38 44q-11 17 -35 44.5 t-33 41.5q-12 16 -23 18q-3 1 -7 -3q-6 -6 -7 -10t-2 -12.5t-2 -12.5q-7 -33 -16 -43q-4 -7 -3 -11q3 -9 -6 -24q-22 -38 -21 -72q0 -9 -11 -31q-10 -17 -20 -55q-5 -25 -3 -42q4 -32 -11 -53q-8 -12 -3 -28q0 -2 2 -7.5t3 -8.5q2 -9 -3.5 -16.5t-14.5 -6.5q-33 4 -45 11 q-14 7 -64 40q-3 2 -6 5t-6.5 7t-5.5 6q-10 12 -5 23q4 9 5 16q8 64 40 168q8 26 43 153q0 1 0.5 3l0.5 2q39 107 48 130q31 77 35 90q8 23 38 107q26 72 38 108q8 26 16 38q2 3 5 16q7 32 35 113q10 28 30 85t30 85q5 15 13 45q11 42 18 56q6 11 6 46q-2 0 -6 -1 q-6 0 -8 -1q-39 -20 -48 -26q-26 -19 -68 -31q-76 -23 -178 -77l-60 -30q-23 -12 -41 0q-25 17 -50 38q-5 5 -3 11.5t9 8.5q27 5 33 5q45 2 84 23q95 51 184 93q31 14 104 37q29 9 108 9q4 0 45 -11q3 -1 7 -5q5 -5 5 -6q2 -10 15.5 -22.5t15.5 -21.5q2 -7 7.5 -21t6.5 -17 q-1 -2 -4.5 -14.5t-5.5 -19.5q-23 -66 -41 -116q-2 -4 -5 -13t-5 -14.5t-6 -12.5t-9 -12q-4 -4 -3 -7q2 -12 1 -17.5t-6.5 -15.5t-6.5 -15q-12 -48 -35 -103q-8 -17 -23 -64q-8 -22 -14 -40q-1 -4 -9 -14.5t-7 -18.5q-10 -12 -29 -70q-5 -15 -16.5 -45.5t-19 -54.5 t-11.5 -47q8 -7 20 -2q26 10 39 16q15 6 31 14q3 2 9.5 4.5t11.5 5t9 5.5q51 29 87 42q22 7 33 17q3 3 15.5 7.5t16.5 11.5q1 3 14 8q1 1 3 1.5t3.5 0.5t2.5 1l2 2q7 9 16 17t22.5 18t18.5 14q102 80 154 118q47 32 118 102q12 12 15 14q13 8 35.5 29t36.5 28q8 -2 10 -13 q4 -18 15 -24q0 -2 0.5 -7.5t1.5 -8.5q3 -5 6 -5q6 0 7 2q3 4 6.5 11t5.5 10q-4 8 -19 8z" />
<glyph unicode="L" horiz-adv-x="1015" d="M450 532q-4 -2 -5 -4q-2 -5 2 -7q2 -1 4.5 1t2.5 5q0 1 -2 2.5t-2 2.5zM139 1224q96 49 187 120q18 14 54 40q55 40 126 77q11 6 31 11q14 4 46 8q22 3 25 2q10 -3 47 -9t56 -14q29 -12 50 -43q13 -19 7 -40q-17 -68 -18 -73q-6 -27 -9 -54q-2 -15 -11 -36 q-14 -37 -27 -80q-4 -13 -18 -69t-25 -85q-2 -5 -3.5 -16.5t-3.5 -16.5q-8 -21 -15.5 -61.5t-9.5 -49.5q-20 -84 -29 -127q-7 -36 -19 -108q-10 -52 -16 -78q-18 -88 -28 -132q-2 -10 -7.5 -29t-7.5 -28q-2 -11 -5 -33.5t-5 -33.5q-2 -12 -4 -20q-10 -31 -20 -95 q-5 -27 -6 -29q-11 -30 -17 -104q-4 -37 9 -63q24 -8 57 1q112 31 170 61q12 6 37 15.5t37 15.5q23 12 81 36q85 34 176 57q23 6 65 18.5t53 15.5q88 26 143 34q6 1 49.5 8t67.5 8q102 2 169 -3q50 -4 109 -31q78 -37 120 -69q9 -6 11 -6q19 1 28 -21q5 -13 13 -21 q14 -14 12 -43q0 -4 -5.5 -8t-10.5 -2q-6 1 -11 5q-7 5 -19 17q-28 28 -79 56q-41 22 -95 30q-88 11 -186 5q-31 -2 -88 -10q-36 -4 -73.5 -13t-87 -23.5t-72.5 -20.5q-83 -22 -138 -40q-38 -12 -126 -48q-25 -10 -94 -40.5t-108 -44.5q-16 -6 -89 -25q-12 -3 -25 -3 q-19 0 -55 -2t-71 6q-70 17 -116 50q-10 7 -15 14q-9 15 -52 55q-12 12 -14 16t-2 16q0 10 12 10q31 -2 46 -16q7 -6 40 -30h9q-2 8 -4 22.5t-4 22.5q-4 22 0 46q2 12 7 43.5t9 48.5q9 40 23 120q7 39 18 78q12 43 29 118q1 3 1.5 12t2.5 13l4.5 9t5.5 11.5t5 9.5q4 1 9.5 4 t9.5 5q-6 14 -16 36q2 6 4 19t5 23t8 18q1 2 1 8q0 28 11 80.5t12 60.5q0 4 8 9q9 5 9 17q0 17 9 23q6 4 4 11q-4 8 -2 28.5t1 28.5q14 72 23 107q25 94 51 179q26 83 30 156v17q0 3 -4 9q-56 -6 -99 -32q-42 -25 -102 -67q-92 -64 -151 -99q-62 -37 -106 -40q-50 -4 -98 17 q-12 5 -20 15q-31 38 -40 73q0 4 1 4q6 3 7 2q27 -19 89 -17q26 0 42 -10z" />
<glyph unicode="M" horiz-adv-x="1787" d="M1437 494l1 1v2l-1 1h-1v-1q-1 -1 -1 -2q1 -1 2 -1zM1109 731l-2 3l-1 -3h3zM921 420q-1 -2 -1 -7q0 -3 1.5 -3t2.5 3q1 1 0 3t-1 3zM887 391q2 6 2 7t-2 5q0 -1 -0.5 -2t-0.5 -2q0 -5 1 -8zM1513 727q-1 1 -2 3.5t-1 3.5q-3 0 -3 -1q-1 -2 -1 -7q1 0 3.5 0.5t3.5 0.5z M933 442l-3 4q-3 1 -8 -2.5t-4 -5.5q3 -5 7 -3q2 1 4.5 3.5zM1057 815h3q10 4 9 16l-3 3h-3q-9 -7 -8 -16q0 -1 2 -3zM270 99q17 9 18 11q5 8 -2 19q-3 5 -9 7q-3 1 -5 -2.5t-2 -9.5v-25zM937 465q20 24 20 35q0 16 14 34q10 13 10 32q0 4 1.5 11t1.5 10q0 11 -4 13 q-19 -19 -16 -32q0 -3 -4 -7q-13 -11 -6 -21q-1 -23 -15 -43q-8 -12 -2 -32zM1558 848l-1 1q-6 -13 -17 -40.5t-16 -41.5q0 -1 2 -3q1 -1 4 -1q20 8 25 26q2 6 4 17t4 16q2 7 16 46.5t20 60.5q0 1 -0.5 3t-1.5 4.5t-1 3.5q-1 -1 -2.5 -2t-2.5 -2t-1 -2q-6 -16 -17 -45.5 t-15 -40.5zM1300 -64q1 9 6 35q5 30 7 38q7 33 11 40q7 13 17 38.5t12 30.5q7 15 4 29q-3 20 1 37q2 9 4 26t3 24q2 9 10 26t9 21q6 12 6 20q3 35 25 70q9 15 -1 41q0 1 -3 1t-3 -1q0 -6 -7 -21.5t-5 -25.5q2 -6 -5 -11q-8 -8 -10 -16q-8 -24 -6 -37t-4 -20q-16 -19 -23 -58 q-11 -50 -11 -58q0 -11 -13 -30q-7 -11 -6 -19q1 -3 -2 -16q-2 -13 -10.5 -50t-11.5 -57q-2 -10 -2 -46q0 -1 8 -11zM454 774q-20 -16 -27 -50q-3 -19 -16 -48q-8 -20 -8 -24q-2 -17 -12 -47t-13 -41q0 -1 -7 -11h-6.5t-6.5 -0.5t-5 -2t-4 -4.5t-1 -8q6 -2 7 -2q12 -4 12 -9 q0 -6 -6 -14q-2 -3 -11 -5q-8 -3 -4 -10q6 -10 3 -15q-5 -7 -2 -15q2 -4 2 -12.5v-10.5l-18 -6q15 -15 7 -28q0 -1 -1 -2t-1 -2q-17 -35 -16 -64q0 -12 -4 -20q-16 -28 -13 -52q2 -8 -2 -17q-5 -12 -7 -35.5t-5 -33.5q0 -3 3 -3q7 2 7 3q2 9 5.5 28t3.5 21q2 14 10.5 42.5 t10.5 42.5q1 3 5 10t5 8q9 -1 14 11q10 29 0 44q-1 2 0.5 6.5t2.5 4.5q5 1 7 3t4 8t3 7q9 19 15.5 41t13 49.5t10.5 42.5q1 2 4 22.5t10 29.5q0 10 4 20.5t10 22.5t8 19q2 6 7 25q8 32 16 56q4 13 14.5 47t16.5 53q5 20 -2 29q-12 -10 -16 -14q-7 -7 -8 -10q-2 -5 -7 -18.5 t-7.5 -21t-4.5 -19t-1 -21.5h1zM1484 654q-3 0 -8 -1t-8 -2q-2 0 -4 -2q-7 -4 -3 -12q12 -18 -1 -39l-8 -14q2 -10 0.5 -18.5t-8 -20.5t-7.5 -16q0 -2 4 -6q20 20 23 29q23 64 19 103h8q3 1 3 7q0 4 -5 4q-4 0 -6 -4q-1 -1 0 -4t1 -4zM3 1116q11 1 33 1q81 1 152 46 q40 24 63 42q25 19 118 73q6 4 19 10t19 9q30 17 96 31q15 2 21 0q13 -5 41 -6t41 -6q25 -10 62 -28q6 -2 10 -13q1 -2 3 -9t4 -10q16 -20 5 -56q-20 -64 -32 -96q-7 -18 -19 -55.5t-18 -56.5q-6 -16 -17 -47.5t-16 -47.5q-4 -13 -10 -19q-10 -11 -26 -52q-10 -28 -26 -81 t-21 -68q-13 -41 -35 -116.5t-27 -93.5q-4 -11 -9 -33t-6 -25q-2 -7 -8.5 -34.5t-11.5 -42.5q-7 -23 -28 -106q-7 -31 -20.5 -100.5t-22.5 -105.5q-4 -17 0 -58q12 3 12 13q0 17 3.5 35.5t9 42t7.5 34.5q9 48 28 110q35 116 79 218q8 18 24 50.5t22 44.5q78 172 116 258 q27 63 55 118q46 88 107 187q47 74 114 151q39 44 78 71q8 5 23 15.5t22 15.5q14 9 19 8q17 -5 49 8q28 11 49 2l20 -3q45 -7 50 -43q18 -31 24 -89q6 -62 -26 -139l-45 -105q-4 -9 -5 -16q-3 -20 -12 -40q-6 -14 -9 -28q-2 -16 -12 -48.5t-13 -49.5q4 -4 9 3q40 75 51 98 q27 53 69 116q7 10 20 31.5t20 32.5q29 44 60 87q23 31 86 92q30 28 54 32q8 1 24 9q43 19 98 16q27 -2 79 -16q18 -5 25 -20q1 -2 5.5 -9t5.5 -10q5 -14 4 -20q-6 -48 -11 -71q-12 -53 -32 -131q-7 -28 -20 -59q-12 -29 -44 -128q-10 -31 -14 -40q-11 -22 -11 -48 q0 -13 -3.5 -26.5t-10 -29.5t-9.5 -25q0 -1 -2 -3q-4 -3 -7.5 -6.5t-5.5 -6.5t-3.5 -8.5t-2 -8.5t-1.5 -9.5t-1 -8.5q-3 -20 -22 -82q-45 -157 -60 -197q-1 -4 -15 -53q-7 -21 -19.5 -64t-18.5 -65q0 -1 -1.5 -3.5t-1.5 -4.5q0 -13 -4 -27.5t-10.5 -31.5t-9.5 -26 q-21 -78 -28 -110q-13 -66 14 -115q7 -11 19 -14q42 -10 74 7q83 45 120 98q4 5 13.5 15.5t13.5 16.5q4 5 31 46q10 14 15 20h7q2 0 2 -3q1 -5 0 -10t-3.5 -10.5t-3.5 -8.5q-6 -24 5 -35q8 -8 2 -25q-5 -13 -5 -16q-1 -25 -32 -62q-42 -50 -91 -73q-13 -12 -54 -18 q-45 -6 -112 14q-31 9 -106 58q-6 4 -11 13q-4 6 -17.5 26t-19.5 31q-7 12 -7 23q-1 21 2 47q8 45 14 70q12 46 19 69q10 32 32 96q1 2 2 8t3 8q12 17 25 75q1 5 3 14.5t3 16t4.5 14.5t8.5 14q2 2 2 9q4 33 21 63q6 11 20 64q15 47 18 78q4 25 11 40q6 12 15.5 38t16.5 39 q3 6 7 20q1 2 2 9.5t3 10.5q8 14 14 31t12.5 39t10.5 33q8 20 9 23q13 30 16 57q1 14 6 28q7 21 22 64t22 64q29 90 40 150q2 14 2 21q0 5 -3.5 8t-7.5 2q-22 -2 -28 -5q-53 -21 -75 -46q-22 -26 -47 -42q-9 -6 -23 -24q-6 -7 -16 -21.5t-14 -19.5q-4 -6 -15 -15 q-3 -2 -11.5 -7t-12.5 -9q-3 -3 -6.5 -11t-5.5 -11q-39 -54 -78 -121q-15 -25 -17 -28q-26 -38 -32 -60q-1 -5 -7 -15q-27 -50 -30 -69q-2 -8 -7 -15q-11 -14 -27 -70q-5 -18 -26 -80q0 -2 -2 -4q-7 -8 -12.5 -18.5t-8 -17.5t-6.5 -21.5t-6 -19.5q-2 -8 -23 -54 q-2 -5 -8 -18.5t-9 -20.5t-6 -18.5t-3 -21.5q0 -4 -3 -11t-4 -9q-2 -7 -10 -25.5t-10 -29.5q-5 -22 -23.5 -32.5t-41.5 -2.5q-52 20 -83 40q-16 38 3 82q11 22 11 44q0 18 4 33q6 24 19 61q14 38 15 52q0 4 5.5 12.5t6.5 13.5q1 11 7.5 30t7.5 22q19 72 47 149q2 6 12 40 q10 35 31.5 96.5t28.5 83.5q6 20 15 42t21 49.5t18 41.5q24 59 14 116q-2 8 -6 15q-2 3 -7 3q-6 0 -8 -1q-46 -20 -75 -47q-6 -5 -30 -26t-36 -33q-35 -35 -50 -56q-3 -4 -14 -21t-19.5 -27t-19.5 -17q-27 -41 -34 -53q-19 -37 -39 -59q-6 -7 -16 -25q-3 -5 -9 -17t-9 -17 q-10 -20 -29 -55t-33.5 -64.5t-24.5 -57.5q-4 -11 -11 -23q-24 -48 -33 -73q-4 -10 -13 -28t-12 -25q-46 -96 -68 -145q-14 -31 -40 -93q-11 -25 -26.5 -72t-21.5 -63q-10 -27 -12 -58l-6 -24q-21 -79 -21 -103q0 -6 -2 -16q-8 -30 -19 -117q0 -5 -1 -10.5t-2.5 -11.5 l-2.5 -10q-24 -14 -49 -2q-22 12 -47 18q-7 2 -31 14q-12 5 -20 20l-18 33q-13 28 -13 53q1 14 0 41t-1 35q0 33 13 83q16 56 31 131q15 71 30 114q5 15 12 43.5t11 41.5q3 7 6.5 22t5.5 23q4 10 9 32t8 33q5 16 16 50t16 50q4 10 10 32.5t9 32.5q14 42 18 64q4 19 9 33 q8 21 43 127l15 45t18 53.5t15 45.5q7 22 21 66.5t21 66.5q1 3 1 8q0 7 -3 8q-4 2 -7 0q-18 -15 -58 -25q-27 -7 -50 -22q-29 -18 -55 -30q-18 -8 -37 -21q-12 -8 -34 -24.5t-34 -24.5q-72 -51 -169 -59q-22 -1 -44 12q-25 15 -43 46z" />
<glyph unicode="N" horiz-adv-x="1495" d="M1110 428l-3 -6l3 -2q1 0 2.5 2t2.5 2q-1 1 -2.5 2t-2.5 2zM1137 514v7q0 3 -1 3q-3 0 -4 -1t-3 -7q0 -7 5 -9q1 1 2 4zM1040 31l12 14t8 9t0 4l-3 2q-12 -6 -17 -10v-19zM1096 384q-5 -16 -11 -34q-1 -3 1 -8l3 -1q1 1 2.5 3l3 4t1.5 3v33zM426 695q-9 -17 -10 -22 t1 -18q9 17 10 22t-1 18zM1063 214q-4 0 -4 -1q-6 -32 -8 -44q0 -3 3 -3q4 0 4 1q4 17 5 28q3 16 0 19zM485 894q-31 -57 -36 -85q-3 -17 -14 -65q0 -4 4 -6q4 0 4 2l2.5 5t2.5 5.5t1 4.5q23 88 38 120v3t-0.5 3.5t-1 5t-0.5 7.5zM321 375q-10 -4 -16 -23q-12 -33 -15 -47 q-2 -9 -5 -26t-5 -26q0 -6 4 -6q5 0 7 4q9 30 18 46q2 3 2.5 8.5t1.5 7.5q2 7 6.5 22t6.5 22t-6 19q2 3 8.5 10.5t9.5 12.5q10 16 3 40q0 2 -4 2t-4 -2q-7 -40 -12 -52v-12zM397 612q-14 -2 -22 -23q-3 -9 -18 -55q4 -4 7 -4q6 0 8 1q5 3 5 6q5 32 16 51q2 3 2.5 7.5 t0.5 9.5v8q7 5 7.5 8t-4.5 13q0 -4 -0.5 -11.5t-1.5 -10.5zM355 476q-11 -4 -9 -15q0 -1 2 -3h3q1 3 2 9.5t1 9.5q4 4 5 6q2 4 -1 4h-2t-1 -3v-8zM694 1220l-42 -102q-37 -92 -40 -98q-4 -12 -12 -21q-7 -8 -11 -27q-11 -58 -32 -90q-7 -10 -8 -20q-5 -30 -15 -48 q-4 -6 -8 -28q-17 -83 -38 -142q-2 -7 -6 -11q-7 -9 -18 -42q-10 -29 -17 -52l-2.5 -7.5t-2.5 -8.5t-1 -8q-1 -15 -5 -32.5t-7.5 -29t-10.5 -32t-10 -28.5q-4 -11 -9 -13q-29 -16 -25 -58q1 -23 -5 -45q-1 -4 -2.5 -11t-2.5 -12t-4 -10.5t-8 -9.5q-5 -3 -5 -11 q0 -14 -13 -44q-6 -16 -7 -24q-11 -68 -8 -96q1 -3 -2 -21q-3 -15 7 -39q2 5 8.5 19t8.5 21q34 95 63 197q1 4 4 12t4 12q4 15 15 46t15 46q11 40 41 106q14 30 40.5 90.5t40.5 90.5q15 32 47 94q30 63 32 68q21 56 85 156l87 129q55 83 112 153q6 7 16.5 20t15.5 19 q17 21 34 23q4 1 18 10q18 12 27 19q30 26 89 39q18 5 46 3q69 -3 121 -15q53 -13 81 -49q4 -6 14 -16q59 -71 42 -160q-2 -8 -5 -25t-4 -25q-4 -18 -10 -35t-17.5 -42.5t-14.5 -32.5q-6 -13 -17 -37.5t-19.5 -44.5t-14.5 -38q-3 -8 -9 -21.5t-8 -21.5q-1 -2 -3.5 -10 t-3 -10t-1.5 -10t2 -11q2 -4 -3 -20q-56 -158 -72 -220q-1 -4 -3.5 -10t-3.5 -10q-1 -6 -8.5 -18t-8.5 -20q-1 -14 -7 -37q-6 -21 -17 -61.5t-16 -60.5q-5 -18 -13 -54q-3 -15 -9.5 -43.5t-9.5 -42.5q-17 -90 -19 -108q-6 -75 0 -113q1 -6 2.5 -17t3 -20t3.5 -17 q3 -19 12 -35q11 -21 27 -43q19 -29 52 -21q36 8 52 16q62 30 95 75q1 0 1 2t1 2q4 4 11 11.5t12.5 13.5t10.5 12q6 7 15 20.5t12 16.5q2 3 6 8t6 8q1 -3 2 -5.5t1.5 -4t0.5 -3v-2.5q-2 -12 -6 -24q-10 -24 -7 -45q3 -19 -10 -62q-1 -3 -6 -11q-40 -54 -98 -77 q-13 -6 -50 -8q-5 0 -14.5 1t-14.5 0q-40 -6 -96 26q-9 5 -25.5 15.5t-24.5 15.5q-20 12 -46 49q-29 43 -46 94q-20 61 -21 111q-2 28 5 41q4 9 2 17q-4 23 6 75q9 50 20 68q9 16 9 24q0 17 10 49t10 49q0 7 3 12q8 15 14 32.5t11 41t9 34.5q4 12 7.5 25.5t7.5 30t6 25.5 q0 1 0.5 4t1.5 4q8 14 16 42.5t10 33.5q13 34 16 56q3 14 9 28q11 28 16 34q4 6 6.5 18.5t5.5 17.5q8 16 12 31q4 10 7 28q7 34 22 54q8 11 11 23q4 17 10.5 34t16.5 39.5t14 32.5t14.5 33.5t14.5 36.5q23 70 15 125q-4 23 -11 35q-9 14 -27 19q-42 10 -88 7q-49 -4 -75 -25 q-9 -7 -26.5 -19.5t-20.5 -15.5q-12 -9 -19 -17q-20 -24 -57 -56q-12 -10 -27 -32q-39 -60 -75 -95q-9 -8 -17.5 -19.5t-18.5 -26t-16 -21.5q-6 -8 -17.5 -23.5t-17.5 -23.5q-19 -26 -53 -91q-28 -54 -57 -88q-35 -41 -49 -73q-6 -15 -22.5 -49.5t-24.5 -53.5 q-14 -36 -40 -89q-36 -74 -41 -101q-7 -12 -15.5 -35.5t-11.5 -30.5q-15 -32 -30 -96q-14 -53 -30 -101q-2 -8 -6.5 -22t-7.5 -22q-12 -38 -20 -56q-15 -35 -19 -64q-1 -15 -15 -24q-4 -2 -11 -17q-9 -17 -24 -9q-37 20 -62 26q-15 4 -27 20q-39 50 -42 112q-2 28 -2 42 q0 12 1 17q1 3 5 35t12 47q0 1 6 29q2 16 5 20q15 25 12 43q5 8 7 16.5t3 23.5t1 17q4 27 10 46q2 4 11 21t10 29q1 8 13 48q2 9 7 26.5t8 26.5q4 13 11 40t11 41q6 23 20 41q15 18 15 52q0 17 10 49q22 66 32 100q6 16 13 22q18 16 15 37q-1 11 7 23q9 12 5 24q-5 17 6 37 q16 31 27 66q1 4 26 62q5 13 15 37t15 37q1 1 6 20q-2 0 -6.5 2.5t-6.5 1.5q-55 -11 -74 -19q-4 -2 -49 -20t-67 -30q-53 -31 -59 -33q-31 -13 -77 -42q-20 -13 -64 -33q-16 -7 -35 -12q-31 -7 -51 13q-6 7 -44 39q-3 2 -3 7.5t4 7.5q8 5 11 6q7 2 21 4q47 5 110 39 q6 4 18.5 11t18.5 10q112 70 258 124q33 12 74 14q30 1 69 -19q14 -8 34 -16q10 -4 42 -27q20 -15 24 -34q1 -4 4.5 -11.5t4.5 -11.5z" />
<glyph unicode="O" horiz-adv-x="1398" d="M1148 840h-2l1 -3zM319 791q-2 -2 -2 -3l1 -1v-2q2 2 2 3v1q-1 1 -1 2zM1127 721q-1 -3 -3.5 -5.5t-4 -5t-0.5 -6.5q0 -1 2 -3q2 0 3 1q9 9 3 19zM283 700q3 7 10.5 22t10.5 23q2 4 -3 7q-2 2 -6 -2q-15 -28 -19 -39q0 -1 1 -2.5t3 -4t3 -4.5zM211 461l10 7q1 6 4.5 19 t4.5 19.5t0 19.5q13 16 15 24q1 6 5 17t5 15q1 2 4 10.5t3 13.5q0 34 15 54q1 2 -1 8q0 3 -3 3q-4 0 -4 -1q-7 -12 -8 -14q-2 -5 -5 -14t-6 -16t-7 -12q-5 -8 -12 -30q-4 -16 -7 -24q-6 -14 7 -35q-11 2 -14 -5l-12 -30q1 -3 4.5 -9.5t4 -9.5t-1.5 -11q-1 -1 -3.5 -5.5 t-3.5 -7.5l5 -5q1 1 1 4v15zM216 338q-14 0 -23 -13q1 -3 2.5 -8t2.5 -8t0 -6t0.5 -6.5t5.5 -5.5l3.5 7t3.5 8q1 5 2.5 15.5t2.5 16.5q2 10 2 16l-3 3q-1 1 -3 0q-5 -5 -4 -6q2 -5 8 -13zM163 1186q2 2 7.5 6t7.5 7t7.5 14.5t12.5 14.5q1 0 2 2t1.5 5t1.5 4q2 3 5 10.5 t5 11.5l-1 -1q7 3 21 11t22 12q9 19 12 23q2 5 10 9t10 6q9 9 42 35q8 6 15 6q6 0 7 1q16 22 32 27q5 2 10 5.5t11 8.5t9 7q13 9 14 10q4 2 18.5 6.5t20.5 9.5t33 17q29 13 35 13l18 9q1 1 3.5 2.5t4.5 2.5t3 1q9 -2 18.5 0.5t20.5 7t17 6.5q18 4 30 4q52 -2 80 -4 q53 -4 71 0h13q12 -1 54.5 -5t70 -8.5t54.5 -11.5q18 -5 52 -17q4 -1 10 -3.5t10 -3.5q102 -32 178 -129q23 -30 29 -56q12 -48 17 -73q4 -17 2 -25q-1 -7 -4 -67q0 -5 0.5 -17t-0.5 -20.5t-5 -16.5q-2 -3 0 -12q3 -10 1 -34.5t-3 -33.5t-5.5 -33t-5.5 -33q0 -2 -2 -4 q-6 -12 -16 -34t-16 -34q-8 -5 -11.5 -13t-5.5 -18.5t-5 -16.5q3 -7 0.5 -20.5t-4.5 -19t-6.5 -19t-6.5 -18.5q-3 -10 -9 -30.5t-11.5 -36t-13.5 -28.5q-4 -31 -22 -64q-9 -16 -17 -23q-20 -17 -23 -44q-4 -28 -28 -54q-25 -29 -37 -56q-11 -26 -10 -36q1 -22 -19 -36 q-22 -14 -32 -47q-9 -28 -33 -63q-20 -28 -33 -58q-32 -71 -72 -119q-18 -22 -87 -98q-10 -10 -15 -14l-21 -15q-26 -27 -104 -71q-34 -19 -81 -19q-76 2 -127 24q-15 7 -28 11q-2 1 -7.5 2t-8.5 3q-68 41 -88 57q-73 60 -104 141q-1 2 -2 6t-2 6q-21 35 -25 101 q-2 35 -8 113q-2 19 5 72q11 77 64 287q4 12 8 19q10 16 11 32q2 17 5 24q6 12 14.5 35.5t11.5 31.5q26 62 36 76q3 3 3 7q2 12 7.5 26t10 23t13 24.5t12.5 22.5q8 16 26 46.5t26 45.5q10 21 36.5 52.5t34.5 45.5q69 65 101 82q13 8 15 8q50 11 83 17q37 7 66 -4 q10 -4 17 -4q27 -1 77 -32q14 -9 36 -46q6 -11 -4 -19q-20 -18 -47 -15t-35 32q-34 5 -73 -18q-7 -5 -23.5 -16t-29.5 -18.5t-26 -12.5q-6 -3 -16 -13q-30 -30 -44 -46q-9 -11 -13 -21q-2 -5 -7.5 -19t-10.5 -23.5t-12 -17.5q-4 -4 -23 -45q-10 -24 -12 -26 q-14 -19 -24.5 -40t-25.5 -57t-18 -43q-7 -14 -19 -44.5t-18 -45.5q-17 -37 -52 -173q-2 -7 -27 -119l-1 -5q-1 -5 -2 -7q-11 -19 -11 -61q2 -38 0 -76q-1 -27 5 -77t7 -62q1 -32 17 -65q2 -5 9 -24.5t15 -28.5l36 -42q1 -1 10 -13q17 -21 46 -27q14 -3 37 2q15 4 32.5 12 t28.5 14t31 17.5t28 16.5q9 5 20 16q25 23 73 69q11 10 12 13q9 12 26 35.5t26 35.5q22 29 31 54q7 17 17 24q0 -6 1 -8l3 -6q5 2 5 5q0 5 -2 6q-1 1 -4 1t-4 1q5 10 6 10q24 8 27 30q4 28 30 43q9 7 11 12q17 31 30 40q10 7 5 23l-6 12q15 35 32 73q11 23 35 67q4 7 11 21 t13 25t13 20q3 4 11 27q3 11 12 22q6 6 9 14q4 12 14 38t16.5 46.5t10.5 39.5q3 17 16 47q26 60 32 100q0 2 0.5 6.5t1 8t1.5 6.5q26 114 29 131t13 101q4 36 5 54q3 47 -10 100q-6 24 -24 44q-4 4 -8 10t-8 13.5t-7 11.5q-19 29 -53 39q-55 17 -133 20q-10 0 -20 -5 q-22 -13 -65 -17q-11 -1 -46.5 -3.5t-54.5 -4.5q-17 -2 -49 -10q-105 -23 -185 -68q-135 -77 -223 -179q-50 -59 -77 -110q-32 -62 -44 -95q-23 -65 7 -110q2 -2 4 -12q1 -2 -2 -5t-6 -3h-8q-10 7 -29.5 15.5t-26.5 12.5q-46 25 -69 61q-21 33 -15 73q2 13 10 17q10 6 14 15 q1 2 7.5 14.5t8.5 19.5q15 40 42 73q12 14 14 25q1 4 15 2q16 14 49 63z" />
<glyph unicode="P" horiz-adv-x="1574" d="M528 1387q-1 0 -3.5 1t-3.5 1q-2 0 -2 -3q0 -1 1 -2q6 -3 8 1v2zM557 1402l-3 -3t-2 -3q2 -1 3 -2q1 1 2 2.5t2 2.5q-1 2 -2 3zM235 1207q-8 2 -9 3t-6 -3.5t-6 -5.5v-4q2 -6 5 -3q1 0 6.5 5.5t9.5 7.5zM642 858h1q-3 7 0 11t9 7.5t8 6.5q-3 5 -8 15t-8 15 q-2 -3 -11.5 -15t-11.5 -20q-16 -48 -23 -62q-7 -16 -4 -36l-2.5 -2.5t-2.5 -2t-2.5 -2t-1.5 -2.5q-4 -12 -18 -40.5t-18 -44.5q-14 -21 -24.5 -65.5t-13.5 -53.5q-2 -5 -2 -17q0 -17 -1 -25q0 -2 -1 -6t-1 -6.5t-1 -6t-2 -5.5l-2.5 -5t-3.5 -5t-5 -4t-7 -3t-9 -13 q-6 -17 -13 -20q-4 -2 -2 -11q7 -40 -22 -58q-4 -3 -6 -10q-5 -18 1 -29q4 -8 -1 -16q-16 -32 -18 -42q-5 -23 -18 -36q-17 -17 -11 -33q1 -5 -3 -16q0 -1 -4 -9.5t-6 -13.5q-13 -40 -10 -56q-5 -7 -7 -16.5t-2 -15.5t0.5 -17t0.5 -16q-5 -6 -14.5 -20t-15.5 -21v-73 q2 0 4 -1q1 1 3.5 4t3.5 5q8 28 10 31q6 8 8.5 24t5.5 23q-1 5 -3 14.5t-3 13.5q16 -2 16 9q0 15 11 26q12 13 0 25q-1 1 -1.5 4t0.5 4q6 6 8.5 21t7.5 21q7 8 8 18q3 15 12 27q5 6 11 22q3 8 8.5 23.5t8.5 23.5q9 6 9 21q2 38 12 52q2 2 4 12q6 28 24 49q13 15 8 30 q-5 11 6 23q19 24 11 47q2 6 2.5 22t4.5 25q1 3 10 40q12 8 14 11.5t1 14.5q-2 13 2 20q4 6 19 37q1 0 4 0.5t5.5 1t3.5 1.5q5 1 2 7t-3 7q0 13 3 28q0 1 3 4q10 2 17 3q-11 11 -16 17q2 18 3 28q13 15 23 13q6 0 8 7q1 2 1 8t2 8q2 3 8.5 5.5t8.5 4.5q6 4 14 15q7 9 -4 13z M287 1237q1 -1 3.5 -2t3.5 -1t2 1q-2 0 -5 0.5t-5 0.5l5.5 5.5t7 6.5t6.5 4q17 8 40 35q4 4 -1 7q-38 -21 -49 -29q-4 -3 -7.5 -6.5t-8 -9.5t-6.5 -8q-1 -1 2 -6h4q2 1 4.5 1t3.5 1zM1285 918q-4 12 5 24q11 15 7 27q10 40 28 49q9 5 18 17q38 60 65 164q4 12 1 20 q-4 9 -4 42q0 37 -11 66q-7 19 -21 25q-7 3 -20.5 10t-20.5 11q-23 11 -58 8q-53 -6 -109 5q-92 18 -235 14q-76 -1 -195 -31q-2 -1 -14 -4.5t-18 -4.5q-39 -7 -93 -29l-63 -24q-30 -11 -86 -43q-79 -46 -162 -114q-15 -13 -31 -28.5t-35.5 -36t-29.5 -30.5q-24 -24 -39 -44 q-51 -68 -51 -149q0 -92 60 -158q26 -28 41 -67q0 -6 -4 -6q-23 -3 -39 11q-38 33 -63 68q-12 19 -22 25q-19 14 -35 42q-27 47 -46 113q-5 18 -5 33q0 12 0.5 25.5t1.5 29.5t1 25q0 7 4 21q2 8 8 23.5t9 23.5q9 24 22 35q33 28 61 70q8 13 31 34q58 55 91 81q49 40 82 59 q10 6 34 21t38 23q62 34 90 45q89 34 94 36q11 3 34.5 13t36.5 13q30 7 122 32q5 1 17 3q64 8 96 13q29 5 49 -6q19 -10 12 -31q11 -13 26 -13q10 0 12 3t1 16v-1q8 4 11 4q2 0 23 -2.5t23 1.5l41 3h8q20 16 59 -1q22 -10 56 -17q36 -8 102 -40q17 -9 34 -17q70 -32 109 -78 q3 -4 11.5 -11t12.5 -12q43 -53 57 -143q3 -22 -7 -63q-17 -67 -46 -127q-9 -17 -29.5 -54t-30.5 -57q-11 -23 -31 -39q-42 -33 -124 -101q-2 -1 -14 -9q-30 -18 -90.5 -54t-90.5 -54q-27 -16 -38 -19q-19 -6 -38 -17q-88 -47 -221 -95q-86 -32 -158 -28q-10 -5 -14 -18 q-7 -21 -20 -64t-20 -64q-5 -15 -23 -68q-33 -99 -74 -242q-10 -35 -18 -74q-1 -4 -1.5 -8t-1 -9t-0.5 -8q-12 -76 24 -124q-27 -20 -47 -8q-35 5 -95 35q-13 6 -17 18q-3 6 -8 17.5t-7 17.5q-9 19 -7 41q4 58 13 87q4 11 7.5 33.5t6.5 32.5q6 23 20 68.5t21 68.5 q8 30 23 63q11 24 16 52q2 16 6 25q9 20 21 58.5t19 56.5q7 16 12 34t10.5 41t8.5 34q8 29 37 104q3 9 20.5 57t27.5 73q12 29 36.5 87t35.5 88q34 86 54 128q0 1 3 7t4 9q2 17 13 47t13 37q4 13 17 16q42 8 64 -10q2 -2 8.5 -4t7.5 -2q25 -9 49 -44q12 -20 6 -41 q-1 -2 -5 -11q-8 -18 -24.5 -54t-24.5 -54q-3 -6 -9 -18.5t-9 -19.5q-2 -4 -5 -11.5t-5 -11.5l-15.5 -31t-18.5 -39t-12 -33q-18 -37 -46 -110.5t-31 -81.5l-27 -84q-2 -9 2 -11q5 -3 12 -1q12 4 37 13.5t38 14.5q57 20 165 74q102 52 152 81q29 17 139 89q40 26 87 66 q18 15 33 17q0 -2 -1 -6t-1 -6q0 -3 2 -3t3.5 0.5t3 2.5t2.5 3q5 5 -3 5q-1 0 -7 3z" />
<glyph unicode="Q" horiz-adv-x="1361" d="M238 831l1 -3l1 3h-2zM95 313l2 2v7h-1l-1 1q0 -1 -0.5 -3.5t-0.5 -3.5v-1q1 -1 1 -2zM1100 1042q-6 -10 -8 -15q0 -1 3 -7q1 1 3.5 2.5t3.5 2.5q4 10 -2 17zM86 126q7 9 5 26q0 1 -3 7l-6 -9q0 -6 4 -24zM1099 987l-6 -3q-1 -9 -5.5 -30t-6 -36.5t-1.5 -29.5 q-4 -2 -5.5 -5.5t-2.5 -9t-1 -7.5l-9 -27q-2 -4 3 -7q5 -2 8 -1q12 6 18 10q-14 16 -8 28q1 3 -4 20q7 3 7 4q12 20 11 43q-2 25 4 40l-3 12q0 1 1 3.5t2 3.5q1 6 -3 3q-1 0 -1 -4q0 -3 2 -7zM912 414q-10 3 -14 -4q-15 -26 -15 -45q14 3 18 14q7 20 11 35q1 1 2.5 3t1.5 3 q-2 2 -2 3q0 -1 -1 -4t-1 -5zM1055 785q-8 -5 -8 -12q0 -5 -0.5 -14t-0.5 -14q-8 -2 -8 -18l-8 -8q-10 -19 -9 -42q-5 -2 -6 -5t-4.5 -12.5t-6.5 -14.5q-8 -12 -16.5 -37.5t-14.5 -35.5q-2 -3 -4 -20q-19 -26 -21 -31q-15 -25 -12 -43q0 -2 5 -4q4 0 4 1q19 43 23 53 q1 3 1 7.5t-0.5 9.5t-0.5 8q10 2 10 3q3 10 17 36.5t15 42.5q12 15 10 42q4 0 4 2l15 33q1 2 -2 16q10 5 8 17q12 0 12 9q0 5 -0.5 10t-1.5 11.5t-1 10.5q0 1 3 5t3 6t-2 7q-1 -7 -3 -19zM92 262q-1 -1 -3 -2.5t-3 -2.5q-6 -23 2 -39q1 9 2.5 23.5t1.5 20.5q1 3 2.5 9.5 t2.5 9.5q0 2 -1 3q-5 3 -5 -3q0 -3 0.5 -9t0.5 -10zM249 910q0 2 -1.5 7.5t-2.5 9.5l24 6q2 0 2 4l-1 3q-5 0 -14 2t-14 2q-3 1 -4.5 4.5t-0.5 5.5q4 6 11.5 17.5t11.5 17.5q2 3 6.5 8.5t6.5 8.5q24 32 25 34q5 5 14.5 14t12.5 12q56 56 84 76q18 14 27 20q20 14 48 14 q19 0 62.5 2.5t67.5 0.5q60 -4 136 -28q35 -11 64 -47q1 -1 2 -4l1 -4q5 -12 -5 -14q-51 -9 -76 12q-2 2 -14 9q-14 8 -28 2q-28 -11 -31 -13q-15 -9 -62 -27q-7 -3 -30 -14q-6 -3 -18.5 -10t-18.5 -11q-66 -40 -128 -115q-63 -78 -102 -149q-30 -57 -56 -127 q-34 -96 -56 -186q-16 -68 -20 -103q-4 -44 -13 -66q-5 -11 -7 -46q-4 -62 9 -134q20 -114 86 -200q23 -30 56 -43q25 -10 62 -1q69 17 109 34q23 10 47 27q75 54 119 100q14 14 5 30q-4 7 -19 35t-25 42q-11 14 -29 51q-14 28 -25 39q-6 6 -3.5 13t10.5 11q44 21 90 4 q7 -2 34 -17q5 -3 11 -12q4 -6 7 -14t6 -18t5 -15q2 -3 4.5 -9.5t3.5 -9.5q1 -1 3 -3.5t3 -3.5q8 5 9 7q9 14 27.5 40.5t27.5 39.5q5 8 16 26.5t17 27.5q23 34 57 108q35 74 39 83q8 17 9 19q11 33 34.5 93.5t31.5 84.5l14 45.5t17 50.5q4 10 28 102q2 8 4 20q1 6 4.5 28 t6.5 34q12 42 4 74q-8 34 0 63q1 2 -1 7q-8 9 -12 30t-6 25q-6 18 -11 27q-2 2 -1 13t0 15q-8 39 -28 66q-5 6 -11 20t-11 20q-16 19 -26 38q-8 14 -42 57q-31 38 -83 46q-18 2 -29 4q-34 9 -64 -12q-18 -13 -56 -17q-141 -18 -277 -106q-18 -12 -52 -36q-57 -39 -155 -148 q-24 -26 -52 -77q-21 -37 -10 -72q0 -2 1 -6.5t1 -6.5q1 -4 -2 -8t-7 -3q-17 2 -24 0q-28 -10 -75 19q-7 5 -9 14q-15 59 -20 81q-7 32 12 65q28 47 79 109q5 6 62 63q48 48 86 75q20 14 29 23q38 34 107 67q6 3 25.5 14t30.5 15q13 5 38 9.5t36 8.5q7 2 29 -2q10 -4 20 -3 t17 11q3 4 16 4q38 2 76 0q25 -1 75 -9q61 -10 87 -18q138 -39 226 -140q84 -97 115 -237q16 -75 17 -146q2 -48 -7 -92q-1 -6 -8.5 -51.5t-14.5 -68.5q-1 -4 -4.5 -17t-6.5 -19q-9 -20 -25 -81q-3 -12 -11.5 -34t-9.5 -25q-2 -5 -8.5 -19.5t-8.5 -23.5q-20 -65 -75 -179 q-8 -16 -14 -31q-22 -51 -94 -164q-10 -15 -83 -117q-4 -6 -30 -43q-1 -8 8 -21q14 -21 42.5 -63t42.5 -63q17 -26 61 -70q6 -6 14 -11.5t18.5 -11.5t15.5 -10q42 -28 90 -34q11 -2 30 -5.5t28 -4.5q26 -4 37 -8q8 -3 14 -9q3 -3 5 -11q1 -3 -3 -7.5t-7 -4.5q-45 0 -50 1 q-113 19 -193 47q-63 23 -104 61q-47 44 -78 77q-7 8 -18 25t-14 20q-6 8 -16 20q-2 -1 -5.5 -3.5t-5.5 -4t-4 -2.5q-8 -6 -17 -13.5t-19 -16t-16 -13.5q-97 -80 -238 -88q-1 0 -25 3q-23 4 -58 11q-14 2 -20 6q-12 8 -39 16t-39 15q-50 30 -85 61q-16 14 -37 46 q-39 61 -58 112q-18 47 -22 90q-5 65 0 152q2 49 10 79q5 23 8 28q5 10 5 11q-1 12 0 16.5t6 15.5t6 16q5 19 14 44q2 4 30 101q1 3 1 11t2 13t8 9q-2 15 11 30q6 6 6 12q0 9 2.5 18t8.5 20.5t8 16.5q9 22 26 25q3 1 8 8q1 2 8.5 20t14.5 25q7 8 14.5 23.5t10.5 19.5 q3 6 3 12q1 8 1.5 11t3 5.5t10.5 7.5z" />
<glyph unicode="R" horiz-adv-x="1576" d="M283 1234q1 0 3.5 1t3.5 1l-1 1q-1 2 -2 2q-2 0 -6 -2l1 -1q0 -2 1 -2zM691 1448v2l-2 -1zM448 1342v-1q-1 -1 -1 -2q0 -3 2 -3q5 2 2 6h-3zM377 -10q3 5 -1 6q-3 0 -3 -1t0.5 -3.5t0.5 -3.5l1 1q1 1 2 1zM536 571q-2 9 -4 1q-1 -1 0 -4l1 -4h2q1 2 1 7zM670 1438l-1 1 q-1 2 -2 2t-2 -0.5t-2 -0.5q1 0 1 -2t1 -2q1 -1 4 -1q0 1 1 3zM410 258q3 0 4 1q4 3 4 8t-3 7h-4q-9 -4 -4 -13zM566 629q-2 5 -5 6q-3 2 -6 -1q-6 -8 -6 -10q0 -1 3 -7h4q9 3 10 12zM1491 -19q11 -13 12 -13q17 -6 51 -16q5 -1 19 -1q-23 15 -33.5 19t-48.5 11zM1839 -105 q-11 8 -28 10q-16 2 -24 4q-59 14 -99 6q-6 -1 -11 -5q-2 -2 5 -5q3 -2 7 -3q19 -4 133 -17q12 -2 17 10zM570 669q16 1 26 24q2 6 4.5 17.5t5.5 20t10 15.5q1 1 -2 8q-4 7 -10 1q0 -1 -2 -2l-2 -1q-24 -30 -24 -56q0 -6 -2.5 -15t-2.5 -13q-4 -6 -6 -10q0 -1 4 -5q2 2 2 4 t-0.5 6t-0.5 6zM504 1351q-6 1 -17.5 -4t-18.5 -2q-3 1 -4.5 -1.5t-1.5 -6.5q0 -2 0.5 -6t0.5 -6q-16 4 -23 -1q-2 -2 -2 -4q2 -5 4 -5q16 5 20 11q18 -2 39 15l3 11q16 -5 24 8q3 5 -2 7q-1 1 -3 1q-14 0 -16 -2zM1381 1134q9 4 9 12v21q10 10 5 35q-2 -12 -4 -36 q-2 -6 -5.5 -17t-4.5 -16q-1 -2 -2 -5t-2 -5q-1 -3 0.5 -4t3.5 0v4v11zM133 1123l11 11q26 14 27 41q1 23 18 41q1 1 2.5 3.5t2.5 3.5q20 28 26 33q4 4 10 7.5t14 7.5l12 6q25 15 82 59q5 4 14.5 11.5t14.5 11.5q10 8 20 8q11 -1 26 10q33 28 88 51q66 28 86 33q19 4 26 12 q17 17 54 21h13q65 16 150 9q9 -1 72 7q42 6 62 -4q4 -2 11 -2h9q16 -2 48 -7.5t48 -8.5l12 -3q11 -4 31 -11t36.5 -13t31.5 -12q65 -25 150 -85q50 -36 61 -45q54 -46 70 -99q5 -18 5 -33q1 -18 -1 -54q-2 -41 -16 -65q-8 -13 -16 -43q-8 -29 -32 -54q-48 -52 -64 -84 q-5 -11 -20 -20q-14 -8 -37 -25.5t-32 -23.5q-36 -25 -53 -33q-9 -4 -26.5 -16.5t-27.5 -16.5q-20 -16 -63.5 -39t-62.5 -37q-3 -2 -44 -24q-12 -7 -36.5 -21t-36.5 -21q-48 -28 -126 -46q-11 -3 -53.5 -13.5t-65.5 -14.5l-6 -3l-6 -3q4 -9 6 -10q26 -22 40 -31 q59 -39 177 -115q25 -16 53 -33.5t62 -38.5t53 -33q10 -6 14 -9q55 -42 220 -142q6 -4 50 -32q5 -4 6 -5q18 -5 49 -22.5t46 -22.5l57 -27q24 -11 36 -6q10 4 29 0q54 -12 82 -18q52 -11 57 -13q3 -1 21 -4q16 -2 48.5 -5t48.5 -4q41 -4 58 2q10 4 25 0q27 -6 46 14 q5 6 19 13t15 8q0 22 12 30q13 10 37 28.5t33 25.5q5 4 16 4q32 -2 43 -28q0 -1 -1 -3q-1 -3 -2 -4q-15 -11 -15 -33q0 -5 2 -13q5 -20 -11 -38q-14 -14 -22 -20q-3 -2 -22.5 -15.5t-28.5 -22.5q-5 -5 -17 -11q-21 -10 -63 -29t-63 -29q-17 -8 -29 -3q-1 1 -4 1 q-34 -1 -100 11q-48 9 -100 15q-16 2 -33.5 5.5t-30.5 7t-33.5 9.5t-30.5 9.5t-33 11.5t-30 10q-16 6 -23 10q-9 5 -57.5 29.5t-73.5 38.5q-19 11 -55 35t-55 35q-25 15 -69 45.5t-61 41.5q-7 5 -33.5 22t-40.5 26q-25 16 -76 46t-76 46q-18 11 -52 35q-67 45 -85 56 q-54 32 -98 72l-4 4l-5 5t-5.5 3.5t-7.5 0.5q-46 -170 -56 -220q-2 -10 -7.5 -30.5t-7.5 -30.5q-25 -149 -26 -196q0 -7 -1 -20.5t-1 -25t2 -21.5q4 -22 18 -27q8 -3 14 -8t13 -12.5t11 -11.5q1 -1 4 -12q2 -10 -8 -13q-29 -6 -41 0q-19 10 -23 11q-7 3 -19 8.5t-19 8.5 q-36 16 -52 47q-9 19 -23 59q-1 1 0 8t1 9q0 9 1 25.5t1 24.5q2 50 5 63q2 10 5.5 31t7.5 37.5t9 30.5q2 8 2 12q0 16 6.5 46t7.5 37q1 8 7 22.5t8 20.5q1 6 2 20t3 21q3 8 10.5 26.5t10.5 28.5t4.5 29t2.5 25q3 20 13 35q21 33 13 56q13 45 16 52q18 34 43 101t30 78 q14 33 18 56q1 7 5 16q5 12 13 36t13 36q4 10 25 66.5t36 85.5l24 63q2 6 5.5 18t5.5 18q8 22 7 41q-2 17 18 19q24 2 41 -8q47 -25 60 -45q8 -11 9 -23q1 -10 -1.5 -30t-2.5 -28q0 -16 -15 -52q-9 -24 -25 -27q-3 -1 -8 -8q-24 -50 -32 -77v-4h1q-2 -3 -8 -13t-8 -16 q-16 -50 -92 -231q-7 -15 -17.5 -43.5t-14.5 -38.5q-2 -4 1.5 -8t7.5 -3q3 0 8 0.5t8 1.5q94 22 153 47q18 8 93 49l156 84l8 4q20 13 70.5 42.5t76.5 48.5q60 42 85 74q9 10 27 28.5t22 22.5q7 7 8 11q8 20 34 52q7 8 1 15q-3 0 -9.5 -6t-12.5 -4h1q-3 10 4 24q18 37 25 97 q4 36 -16 82q-3 8 -10 13q-43 34 -98 58q-13 4 -20 1q-18 -8 -36 1q-9 4 -20 6q-53 5 -96 13q-11 2 -32.5 3.5t-26.5 1.5q-57 6 -172 2q-12 -1 -59 -8q-86 -13 -155 -36q-36 -11 -73 -32q-17 -9 -79 -39q-18 -9 -28 -25q-8 -12 -43 -25q-6 1 -12 0.5t-11.5 -3t-9.5 -4.5 t-10 -6.5t-8 -6.5t-9 -8t-8 -7q-30 -27 -35 -31q-18 -14 -28 -30q-11 -16 -39 -44q-17 -17 -27 -32q-21 -32 -34 -42q-47 -39 -69 -113q-3 -10 -5 -21t-4 -24.5t-3 -20.5q-3 -15 4 -33q14 -36 31 -55q3 -4 9 -11.5t9 -11.5q8 -11 5 -24q-1 -4 -5 -6.5t-8 -1.5q-2 1 -9 3.5 t-10 4.5q-27 20 -35 31q-67 85 -81 131q-17 51 4 107q2 7 9.5 21t10.5 21q4 11 17 29t17 28q5 14 26 20t43 38q2 3 -7 8z" />
<glyph unicode="S" horiz-adv-x="1429" d="M385 1091l1 3h-2zM482 1224q0 -3 1 -3q5 -3 5 2q0 2 -3 2q-1 0 -3 -1zM655 1401q4 -3 5 -3q20 10 29 15q3 3 1 7q-1 1 -3.5 2.5t-3.5 0.5q-4 -3 -28 -22zM753 1455q10 3 11 3q1 1 1 6q-2 1 -3 1q-9 -4 -8 -11q-2 0 -5 -1t-4 -1l3 -1q1 1 2.5 2t2.5 2zM707 -113 q8 25 31 30q6 2 8 4q13 10 50.5 33.5t56.5 39.5q86 76 116 126q12 20 13 26q0 6 3 7q7 3 12.5 8.5t7.5 10t5.5 13.5t4.5 12q21 48 38 99q23 68 9 137q-10 57 -58 100q-2 2 -18.5 17.5t-25.5 21.5q-7 4 -15 7.5t-19 7.5t-16 6q-16 7 -48.5 21.5t-48.5 21.5q-21 9 -173 67 q-95 35 -142 63q-5 3 -19 11t-20 11.5t-18 11t-19.5 12.5t-17.5 12t-18 14.5t-16 15.5t-26 22q-30 24 -50 61q-9 17 -11 49q0 6 1 8q3 5 14.5 42.5t27.5 52.5q5 4 -1 15q-4 7 1 29q1 4 7 10q49 42 72 91q12 24 28 35q36 25 62 57q35 41 72 64q9 6 16 13q12 12 29 18 q22 6 33 24q10 15 42 35q49 30 117 57q38 15 52 28q16 14 38 16q15 2 27 8q22 14 44 11q14 -1 33 8q43 19 99 14q70 -6 71 -6q97 -19 145 -54q66 -48 63 -130q0 -9 -2 -25q-2 -22 -16 -38q-4 -4 -6.5 -8.5t-5.5 -11t-5 -9.5q-10 -17 -27 -53.5t-28 -54.5l-6 -12 q-5 -29 -37 -54q-16 -13 -27 -32q-22 -38 -38 -55q-4 -4 -9.5 -13t-7.5 -11q-1 0 -5.5 -2t-6.5 -2q-56 3 -97 29q1 2 2.5 5.5t2.5 5.5q5 6 32 38.5t43 47.5q3 3 8 7.5t9 8.5t7 8q8 8 11 17q10 33 34 68q12 18 22 39t22 49.5t18 40.5q0 1 1.5 3.5t1.5 4.5q6 74 -16 110 q0 1 -1.5 2t-3.5 2t-3 2q-23 -9 -68 -16t-58 -10q-44 -10 -65 -19q-23 -10 -71 -24q-39 -11 -126 -59q-44 -24 -66 -37q-4 -2 -95 -62q-2 -1 -20.5 -14.5t-28.5 -19.5q-36 -21 -78 -64q-14 -14 -18 -17q-14 -9 -19 -31q-9 -35 -35 -44q-38 -14 -54 -61q-10 -28 -20 -35 q-6 -5 -12 -17q-25 -52 -16 -98q2 -9 17 -29q11 -13 49 -40q61 -41 138 -71q17 -7 53.5 -19.5t53.5 -19.5q15 -6 43 -18t34 -15q8 -3 29 -13t33 -15q103 -39 207 -111q58 -40 98 -99q44 -63 35 -131q-3 -30 -9 -58q0 -3 -3 -10t-3 -11q0 -9 -3 -18t-7.5 -20.5t-6.5 -17.5 q-9 -26 -24 -49l-24 -39q-37 -57 -72 -88q-94 -83 -132 -112q-84 -64 -168 -93q-2 0 -4 -2q-38 -20 -114 -28q-119 -10 -205 18q-69 23 -140 57q-82 40 -193 142q-28 25 -32 58q-1 9 -8 19q-43 70 -18 154q11 38 12 41q9 27 19 42q11 18 13 26q2 5 4 7q5 6 20 25.5t22.5 28 t20.5 23t26 25t27 18.5q32 19 68 12q22 -4 60 -36q5 -5 3 -11q-1 -2 -4.5 -4t-5.5 -1q-6 1 -18.5 4.5t-18.5 5.5q-22 7 -32 -10q-10 -16 -24 -30t-20 -36q-8 -26 -26 -56q-12 -21 -22 -50q-4 -12 -10 -36.5t-10 -36.5q-9 -28 1 -63q13 -44 22 -59q19 -35 17 -59q0 -9 7 -16 q41 -42 51 -49q69 -53 150 -62l51 -6q95 -6 194 29q11 4 33 10q4 0 6 -4q2 -5 0 -7q-14 -10 -22 -13q-7 -2 -21 -5.5t-16 -3.5t-10 -6q-1 -1 -1 -4q0 -2 3 -2q2 1 21 5t28 7q1 0 18 3.5t25 8.5q2 4 14.5 2t15.5 -2z" />
<glyph unicode="T" horiz-adv-x="1116" d="M497 297l3 1q-2 3 -3 3v-4zM471 186q-17 -32 -15 -83q13 51 12 63q0 4 2 21q0 2 3 8.5t-2 9.5v-19zM485 259q1 1 2.5 3t1.5 3q-1 -1 -2.5 -3.5t-1.5 -3.5q-1 -1 -1 -3t-1 -3q1 1 1 3.5t1 3.5zM870 1235q-15 -31 -17 -54q0 -4 -14 -40q-7 -20 -21 -66t-23 -70 q-9 -22 -21.5 -63t-16.5 -53q-6 -18 -54 -151q-4 -10 -11 -32t-10 -32q-69 -208 -72 -215q-17 -46 -61 -202q-14 -52 -33 -148q-5 -25 -11 -79q-4 -32 8 -71q6 -19 24 -40q1 -1 10 -13q5 -6 -3 -14q-12 -10 -28 -7q-13 3 -23 9q-24 14 -38 19q-22 8 -33 25q-32 50 -38 84 q-2 16 -2 25q2 45 10 84q2 8 15 82q10 66 31 113q18 44 28 97q4 23 11.5 47t19 55.5t15.5 45.5q8 12 15 38t8 29q49 145 58 167l3 9t3 8q12 35 36.5 105t36.5 105q6 18 12.5 38t14.5 44.5t12 37.5q1 4 4.5 14t5.5 14q5 15 1 19.5t-20 1.5q-9 -2 -25 -6.5t-19 -5.5 q-12 -3 -36.5 -9.5t-36.5 -10.5l-12 -3q-13 -5 -70.5 -26t-87.5 -33q-62 -25 -114 -55q-12 -6 -17 -11q-4 -3 -26 -16q-11 -6 -23 -13t-26.5 -15.5t-22.5 -13.5q0 -1 -2 -1t-2 -1q-13 -5 -25.5 -14t-20.5 -16.5t-22 -21t-20 -19.5q-2 -2 -6 -5.5t-6 -5.5q-4 -4 -8 -4 q-34 2 -43 12q-25 25 -29 50q-3 22 10 35q4 4 12.5 12t15 14.5t11.5 12.5q38 41 112 81q5 3 14 9t11 7q33 22 35 23q89 46 105 52q153 60 227 77q14 3 40 11.5t37 11.5q68 18 103 21q14 2 20 13q9 15 26 8q32 -13 65 -3q11 3 34 5q30 2 41 6q12 5 25 3q25 -2 75 8 q54 11 162 27q29 4 87 18q14 4 42.5 11.5t42.5 10.5t17 4q23 9 69.5 23t69.5 24q118 49 156 73q31 18 54 23q12 3 23 -7q27 -21 20 -61q-5 -28 -29 -40q-14 -6 -40 -22t-40 -23q-44 -20 -67 -26q-19 -5 -52.5 -18t-42.5 -16t-28 -7t-21 -5q-4 -1 -12.5 -2t-12.5 -2l-135 -36 q-3 0 -4 -1q-24 -13 -93 -22q-29 -4 -82 -15t-67 -13q-11 -2 -76 -10l-66 -9q-4 0 -8 -1.5t-9 -3.5t-9 -3z" />
<glyph unicode="U" horiz-adv-x="1605" d="M842 428l2 3h-2v-3zM826 403v1l1 2q-1 1 -2 1q0 -1 -1 -3q1 -1 2 -1zM110 238v2l-1 2l-2 2q-2 -2 -2 -3l3 -6q0 1 1 1zM126 273q-6 3 -7 2l-3 -6q5 -3 6 -2t4 6zM1314 1114q-1 1 -2 3q0 1 -1 1q-3 0 -4 -1q-8 -11 -9 -13t2 -7q2 0 3 1q6 7 11 16zM144 356q14 30 31 78 q3 9 8 28.5t10.5 34t13.5 27.5q3 5 5 15.5t3 12.5q11 35 13 40q11 23 31.5 68.5t31.5 68.5q1 1 6 20t6 20q18 38 26 57q8 17 22 47t25 54.5t19 47.5q1 3 2 10.5t2 10.5l2 2t1 2q0 -1 -1 -2.5t-1 -2.5q-2 0 -4 -2q-33 -52 -46 -85q-10 -22 -12 -26q-16 -29 -34 -73 q-5 -12 -15.5 -35t-15.5 -34q-5 -13 -16.5 -42t-17.5 -44q-30 -69 -37 -85q-15 -32 -14 -48q1 -12 -10 -36q-14 -27 -18 -56q-2 -12 -4 -16q-9 -21 -11 -58q-5 -4 -9 -10t-5 -9t-3.5 -13.5t-2.5 -11.5l10 -6q3 19 9 51zM424 1047q9 8 13 25q-5 -2 -6.5 -3t-3 -4t-2 -6 t-0.5 -12l-6 -3q-2 -2 1 -7l1 1q2 1 2 2q1 1 1 3.5v3.5zM1184 508q12 7 8 25q22 20 15 53q-10 -16 -11 -20q0 -5 -1 -17t-2 -17q-4 -3 -5.5 -6.5t-2.5 -10t-1 -8.5q-9 -4 -7 -19q-7 0 -12 -9q-7 -13 -5 -32q-23 -30 -26 -61q0 -2 -5 -20q-3 -9 -9 -27.5t-9 -28.5l2 -13 q9 15 9 17q2 14 10.5 37.5t10.5 34.5q2 9 5 11q15 13 11 50q5 1 11 11q10 20 7 31q10 10 7 19zM1310 838q1 0 3 2l2 2q-1 -1 -2 -2.5t-2 -2.5q-1 -3 -4 -9.5t-4 -9.5l-11 -11q-10 -22 -28 -66q-5 -12 -14 -37t-14 -37q-4 -9 -14 -25q-9 -14 -7 -39q10 4 15 14l15.5 31t19 42 t8.5 35q1 19 13 35q19 26 16 59q8 4 8 19zM1270 1054q-2 1 -4.5 2l-5 2t-5.5 2q21 41 66 98q0 -10 1 -15q1 -3 4.5 -3.5t5.5 1.5q3 3 3 7.5t-4 5.5q-1 0 -11 3q19 31 60.5 84t47.5 61q10 12 26 7q2 0 5.5 -2.5t5.5 -2.5q27 1 48 -21q3 -3 10 -8.5t10 -8.5q26 -23 16 -62 q-4 -18 -11 -27q-13 -17 -28 -51q-4 -11 -14.5 -30t-13.5 -26q-16 -36 -23 -54q-24 -57 -26 -67q-2 -9 -10 -23.5t-10 -18.5q-32 -81 -43 -114q-3 -9 -12 -24t-12 -24q-10 -36 -16 -53q-3 -9 -11 -27q-8 -17 -9 -19q-2 -7 -26 -66q-46 -118 -66 -178q-8 -23 -20 -66.5 t-15 -54.5t-9.5 -32.5t-9.5 -32.5q-1 -3 -3.5 -11t-3.5 -13q-1 -9 -10 -37q-12 -34 -10 -53q1 -15 -8 -32q-11 -19 -5 -62q2 -16 10 -27q24 -30 34 -35t51 0q4 1 12.5 2.5t12.5 2.5q52 11 83 45q8 9 25.5 22t23.5 18q12 10 34 32q12 12 16 13q18 7 48 39q5 5 19 17 q4 -7 3 -9q-4 -15 -19 -37q-18 -28 -22 -45q-6 -23 -31 -50q-26 -26 -60 -52q-20 -16 -66 -28q-17 -3 -26 -11q-11 -11 -28 -9q-85 5 -138 45q-18 13 -21 14q-24 9 -57 48q-39 46 -27 102q2 11 4 33q5 50 13 66q19 84 47 179q19 65 20 73q1 2 8 15q6 10 7 15q4 27 21.5 74 t22.5 66t19 27q5 3 14 12q0 29 19 58q7 11 11 40q5 38 26 56q6 5 6 15q1 18 12 35q3 5 8 17t8 17q4 6 7 18.5t5 16.5q12 30 13 40v12q-7 -4 -7 -5q-75 -115 -93 -150q-12 -23 -34 -48q-38 -43 -67 -96l-15 -21q-14 -18 -20 -27q-3 -5 -28.5 -43t-39.5 -58 q-13 -19 -36.5 -53.5t-43.5 -62.5t-40 -52q-3 -3 -7.5 -10.5t-6.5 -10.5q-28 -38 -33 -44q-56 -69 -62 -79q-10 -17 -28 -32q-31 -28 -50 -56q-1 -1 -3 -3.5t-3 -3.5q-21 -20 -55.5 -61.5t-50.5 -57.5q-20 -20 -38 -46q-10 -15 -35 -30q-29 -16 -65 -29q-14 -5 -43.5 -15.5 t-44.5 -15.5q-16 -5 -48 -13q-7 -2 -13 0q-87 22 -115 40q-29 18 -78 63q-6 6 -8 10q-37 68 -40 110q-6 78 21 158q12 37 13 66q1 38 23 93q8 18 12 36q5 25 19.5 70.5t17.5 54.5q7 26 32 82q13 31 37 89.5t29 70.5q30 73 59 130q32 64 36 81q0 1 9 19q2 3 6.5 12t6.5 14 q2 6 5.5 17.5t7 20t9.5 16.5t14 26t11 23q35 65 64 155v4q1 2 -2 6t-5 3q-5 -1 -15.5 -2t-16 -1.5t-14 -3.5t-14.5 -8q-3 -2 -20 -7q-2 -1 -5 -2t-5.5 -2t-4.5 -2q-12 -10 -28 -18t-35 -17t-30 -15q-42 -23 -47 -27q-18 -13 -37 -19q-13 -4 -101 -31q-28 -8 -47 9 q-21 18 -43 52q-2 4 1 10t8 6q4 0 12.5 0.5t12.5 0.5q36 -1 74 13q51 19 121 59q88 51 126 68q40 19 86 20q56 2 79 -17q3 -3 12 -5q27 -6 66 -50q16 -18 16 -51q0 -5 -7 -19l-12 -18t-11 -18q-11 -18 -14 -35q-1 -8 -14 -30q-5 -8 -11.5 -23.5t-9.5 -21.5q-45 -87 -48 -94 q-5 -12 -16 -33.5t-19 -39.5t-13 -35q-7 -23 -18 -38q-6 -9 -20 -41q-15 -35 -19 -43q-11 -26 -11 -36q0 -19 -16 -28q-13 -7 -15 -24q-2 -20 -15 -47q-15 -33 -17 -39q-6 -22 -17 -38q-13 -20 -16 -39q-2 -11 -7 -33t-7 -33q-6 -33 -23 -58q-18 -28 -27 -79q-5 -27 -9 -37 q-10 -24 -13 -44q-1 -5 -8 -37t-8 -50q0 -4 -2 -12q-11 -38 -13 -130q-2 -46 25 -83q7 -10 26 -27q16 -14 40 -11q60 6 122 29q33 11 52 35q4 4 13 12t12 11q47 43 56 52q14 16 39.5 41.5t46 48t36.5 43.5q19 16 46.5 52.5t34.5 44.5q68 78 131 166q5 7 16 22t16 22 q2 2 5.5 6.5t5.5 6.5q0 -2 1.5 -5t1.5 -4q0 -2 -3 -6t-3.5 -6.5t3.5 -5.5q3 -1 5 1t4.5 7t3.5 6q17 20 46.5 62t46.5 62q1 2 16 25q6 8 23 34t27 39q56 73 109 159q18 30 26 39q6 8 20 41l-1 -1q8 5 14 13.5t12 19.5t10 16q4 6 8 13t8 16.5t7 14.5q2 3 6.5 8t6.5 8q2 1 0 3 q-4 6 -6 -1q-1 -3 -3 -9.5t-3 -9.5z" />
<glyph unicode="V" horiz-adv-x="1316" d="M1091 907l2 1l-1 2v2l-2 -1q0 -1 0.5 -2t0.5 -2zM1124 968h2l-1 3zM511 -73q0 30 -3 36q-2 2 -6 2q-2 0 -2 -3q4 -24 11 -35zM527 299q-22 -59 -21 -83q0 -14 -2 -21q-3 -11 -8 -96q-1 -26 1 -76q0 -2 0.5 -4t2 -6.5t2.5 -9.5q1 14 1 25q0 81 11 150q4 25 10 75 q1 7 1.5 14.5t1 17t0.5 14.5zM1432 1420q15 -4 22 4q2 2 6.5 6t5.5 6q2 4 0 8q-1 1 -3.5 1.5t-3.5 -0.5q-9 -8 -27 -26q-2 -2 -4 -5t-3 -4q-4 -4 -8 -10q-1 -2 -1 -4.5t1.5 -4t2.5 -1.5l3 1q3 1 4 2q3 2 4.5 6t1.5 6.5t-0.5 7.5t-0.5 7zM1382 1350q-13 -13 -19 -20v-6 q3 -1 4 0q16 13 15 27q12 -1 16 8q0 1 2 3.5t3 4.5t0.5 5t-3.5 6q-6 -10 -18 -28zM1198 1087q-16 -5 -18 -25h-4q-9 -8 -11 -12t-4 -22q20 24 19 35q15 5 17 25q5 3 6 4t-1 3l-2 2q-2 -2 -2 -3v-7zM1230 1139q13 6 17 26q2 3 12.5 13.5t15.5 16.5q1 1 7 19q9 9 13 14v4h-7 q-9 -9 -5 -19q-32 -14 -35 -49q-16 -12 -17 -25q-1 -1 -3 -2.5t-3 -1.5l1 -4q6 0 4 8zM1333 1280q-1 0 -3.5 -1t-3.5 -1q-2 0 -2 -3v-1l1 -2q1 0 2.5 0.5t2.5 1.5q0 1 1 3.5t2 3.5t4 7l-1 1v1q0 -1 -1 -4.5t-2 -5.5zM1583 1551q15 19 43 26l1 1h2l2 -2q-1 0 -3 0.5t-3 0.5 q6 8 13.5 13t22 12t17.5 8q7 4 12 2q18 -8 58 3q39 11 91 3q9 -2 29 -6t30 -5q44 -8 100 -32q33 -14 50 -43q6 -9 17 -26.5t17 -26.5q4 -9 1 -16q-3 -6 -14 -9t-16 1q-4 3 -8.5 6.5t-10 8t-8.5 6.5q-2 1 -10 8.5t-13 9.5q-35 15 -43 36q-4 10 -17 12q-66 15 -91 17 q-44 3 -83 -13q-44 -18 -71 -36q-36 -24 -68 -44q-77 -47 -159 -143q-92 -110 -133 -169q-2 -4 -9 -15t-12 -17q-13 -18 -19 -22q-26 -20 -46 -54q-8 -13 -32.5 -51t-35.5 -60q-3 -7 -10.5 -19.5l-10.5 -17.5q-36 -71 -57 -98q-7 -10 -9 -14q-9 -19 -27.5 -59t-27.5 -60 q-1 -3 -4.5 -8t-4.5 -6q-14 -23 -15 -25q-7 -21 -24.5 -56.5t-23.5 -51.5t-11 -23q-10 -15 -28 -65q-7 -20 -56 -141l-42 -111q-3 -8 -10.5 -23t-10.5 -23q-9 -22 -19 -55q-6 -19 -18.5 -57t-18.5 -56q-1 -3 -3 -7q-21 -34 -45 -131q-5 -22 -22 -34.5t-40 -10.5 q-3 0 -9.5 1.5t-10.5 0.5q-13 -2 -27.5 0t-33 7t-27.5 6q-15 2 -31 20q-26 29 -44 71q-23 58 -22 94q0 2 -3 26q-7 56 -7 71q0 14 8 100q2 25 8 67q3 11 2 13q-1 20 0 28.5t5.5 27.5t5.5 27q0 5 3 14t4 14q1 21 18 100q1 5 2 20.5t4 24.5q3 7 5 15.5t4 18.5l3 15q1 7 4 22.5 t5 23.5t6 22.5t5 22.5q0 2 6.5 34t11.5 48q3 8 3 25q0 9 7 23q13 23 7 41q-1 2 2 12t9 39.5t12 45.5q0 1 1.5 3.5t1.5 4.5q3 24 9 47.5t18 61t14 45.5q36 122 45 172q2 15 -2 20q-42 -10 -85 -37q-93 -58 -136 -99q-4 -4 -14 -10q-12 -6 -25 -15t-28 -20t-23 -17 q-16 -12 -21 -14q-16 -8 -33 -18t-37.5 -22.5t-31.5 -19.5q-29 -17 -72 -19q-45 -2 -67 4q-31 8 -64 32q-6 4 -11 13q-4 6 -11 17.5t-9 14.5l7 2q22 -14 56 -14h47q40 0 84 23q25 13 67 42.5t58 39.5l15 15q87 78 160 137q49 40 120 59q36 9 71 -1q4 -1 12.5 -3t12.5 -3 q51 -9 88 -46q36 -35 25 -85q-10 -44 -16 -66q-7 -29 -23 -85q-2 -12 -6 -15q-10 -8 -14.5 -19.5t-8 -26.5t-6.5 -23q-11 -23 -9 -49q0 -12 -1 -17q-4 -18 -13 -54.5t-14 -55.5q-5 -20 -11 -28q-7 -9 -16 -43q-3 -12 -7 -35t-7 -35q-2 -8 -0.5 -23.5t0.5 -22.5 q-1 -3 -7 -18.5t-4 -25.5q1 -5 0 -11.5t-3 -14t-3 -11.5q-8 -5 -11.5 -13t-5.5 -20t-3 -16q-4 -12 -2 -38q2 -15 -4 -45q-18 -83 -30 -170q-2 -17 -12 -49q-17 -58 -7 -87q2 -5 2 -16v-55t-4 -55q-6 -29 2 -62q10 -40 11 -49q1 -6 13 -31q4 -7 11 -21q7 -2 10 7q3 11 8 32.5 t7 32.5q1 4 2.5 11t2.5 10q49 151 54 164q11 30 32.5 86t25.5 68q22 60 34 90q3 8 15 42.5t22 51.5q9 27 33.5 77.5t32.5 77.5q9 14 23.5 48t26.5 50l15 30q59 124 77 155q20 34 39 74q24 49 78 130q18 28 38 61q36 58 105 148q56 74 64 84q70 80 110 116q26 23 103 74l12 3 l1 1h2l2 -2q-1 0 -3 0.5t-3 0.5z" />
<glyph unicode="W" horiz-adv-x="1671" d="M1627 1106l-1 1q-1 2 -2 2l-2 -2l4 -4v1zM1659 1149q0 3 -1 3h-1q-1 -1 -2 -1l1 -1q0 -2 1 -2h1zM1441 850q-1 0 -1 2q0 1 -1 2l-9 -9q6 -2 8 -1zM1631 1159q-1 -1 -3 -2t-3 -2q1 -2 2 -3q1 0 3 2t3 2q-1 0 -1 1t-1 2zM1590 1099q1 1 1 3q-4 0 -5 -1q-2 -2 -2 -5h3z M543 795q-9 -10 -8 -23q7 8 8 10t0 13zM514 697q-12 -22 -16 -34q-3 -9 -12 -33.5t-12 -38.5q-4 -22 -21 -72q-2 -6 -4 -8q-13 -18 -12 -26q1 -7 -5.5 -16.5t-6.5 -13.5q-1 -10 -6.5 -33.5t-6.5 -36.5q-1 -23 -14 -64.5t-15 -48.5t-11 -18q-7 -9 -9 -23l-3 -20q-4 -8 0 -24 q6 -24 5 -37q-1 -6 -3 -18.5t-2 -18.5q0 -5 -13 -35q8 -49 22 -67q1 19 5 51.5t4 47.5q2 57 11 91q24 96 34 144q2 9 8 27.5t8 28.5q4 24 18 65l2 4t1 4q2 9 8.5 37.5t11.5 43.5q3 9 10 39.5t14 45.5q9 20 9 58q8 1 8 12q0 1 -2 3t-2 3q-2 -2 -2 -3q-1 -5 -1 -16zM582 933 q-1 0 -3 -1q-3 -1 -4 -2q-8 -13 -10 -23q-17 -68 -24 -85q0 -1 2 -8q0 -2 2 -2q4 0 4 1q6 18 16.5 56t16.5 57q1 1 0 4t-1 4q10 16 14 25q2 4 2 12l-5 5q-2 -1 -3 -2q-5 -7 -5.5 -22.5t-1.5 -18.5zM2371 1437q8 -30 9 -35q1 -10 -6 -15.5t-15 -1.5l-13 5q-12 6 -17 10 q-31 22 -74 29q-85 14 -151 -6q-3 0 -4 -1q-110 -44 -166 -81q-20 -13 -43 -31t-35.5 -28.5t-42 -36t-36.5 -31.5q-25 -22 -61 -65q-14 -17 -93 -119q-10 -14 -12 -22q-2 -7 -11 -23q-41 -66 -46 -79q-5 -12 -34 -53q-28 -41 -83 -147q-1 -3 -4 -8t-4 -7q-53 -80 -122 -240 q-1 -1 -1 -2t-1 -2q-16 -25 -28.5 -53.5t-27 -67t-21.5 -56.5q-2 -3 -4 -10t-4 -10q-10 -19 -35 -90q-8 -23 -26 -67q-7 -18 -11 -32q-11 -42 -21 -54q-2 -3 -5 -16q-2 -6 -5 -18t-5.5 -21.5t-4.5 -17.5q-5 -27 -39 -40q-4 -1 -11.5 -3t-13.5 -4t-10 -6t-16 -2q-11 2 -41 8 q-28 6 -45 29q-45 58 -61 137q-14 72 -13 109q0 5 -1 18t-0.5 22t4.5 18q-5 15 -2 52.5t1 52.5q-2 21 1 30q2 8 5 49q2 34 8 58q10 39 18 83q2 17 -1 23l-1 -1q-1 -1 -2 -1q-35 -44 -64 -103q-4 -8 -14 -22q-28 -37 -66 -112q-25 -48 -51 -120q-20 -59 -43 -91q-4 -4 -4 -7 q1 -7 -1 -14t-4 -10.5t-7 -11t-6 -10.5q-25 -45 -33 -73q-4 -15 -9 -24q-20 -37 -22 -85q0 -13 -1 -22q-11 -7 -20 -15q-9 -33 -10 -36q-4 -16 -22 -16q-35 0 -49 8q-9 5 -28 15t-28 15q-64 38 -87 123q-19 72 -13 160q0 5 2 19.5t2 22.5q2 37 9 62q3 9 10 54q1 4 2.5 14 t3 15.5t4 13t6.5 13.5q3 5 5 16l21 99q3 15 11 41.5t11 35.5q1 6 9 31.5t10 40.5q4 24 10 32q3 5 5 12q5 23 21.5 77t21.5 85q3 17 12 47.5t12 41.5q3 12 8 26t12 31.5t10 26.5q20 58 29 87q5 14 12.5 41.5t8.5 31.5q7 22 15 40q6 14 15 56q-8 4 -10 3q-42 -10 -83 -38 q-25 -18 -72.5 -49.5t-60.5 -40.5q-12 -8 -17 -13q-34 -34 -111 -67q-6 -3 -18.5 -9t-19.5 -9q-66 -31 -113 -29q-36 1 -65 26q-23 19 -33 52q0 1 2 3t3 2q4 -1 11.5 -3.5t8.5 -2.5q24 -7 41 -3q14 2 21 4q84 25 150 66q44 28 79 57q22 18 48 36.5t57 40t49 34.5 q15 11 57 26q8 2 22 6.5t22 7.5q1 0 3.5 1.5t4.5 1.5h93q60 -21 84 -60q22 -35 9 -72q-6 -15 -16 -44.5t-15 -43.5q-20 -52 -28 -79q-12 -39 -29 -50q-4 -3 -9 -15q-1 -2 -1 -8q-5 -50 -32 -82q9 -21 1 -46q-6 -18 -14.5 -50.5t-11.5 -42.5q-4 -14 -8 -19q-5 -6 -9 -14 t-5.5 -14t-4.5 -16.5t-4 -14.5q-6 -19 -15.5 -56.5t-15.5 -56.5q-3 -14 -15 -35q-6 -11 -10.5 -24.5t-9 -30t-7.5 -25.5q-2 -6 0 -12q3 -17 -8 -37q-22 -37 -18 -72q2 -15 -4 -25q-11 -19 -16.5 -41.5t-5 -42.5t0.5 -43q0 -1 -3 -109q0 -12 -4 -16q-5 -5 -7 -11.5t-2.5 -16 t-0.5 -12.5q-2 -18 5 -46q4 -12 10 -36.5t10 -36.5q4 -13 21 -25q7 12 19 60q23 89 52 169q22 61 44 105q15 30 19 42q18 54 58 131q54 104 127 219q41 65 61 85l3 3q3 4 7.5 11.5t8.5 13t9 9.5q6 5 21.5 9t17.5 5q23 8 42 1q14 -5 50 -23q13 -8 18 -16q31 -49 15 -88 q-10 -26 -24 -75t-21 -69q-3 -8 -6.5 -29t-9.5 -32q-1 -1 -1 -12q3 -51 -4 -135q-3 -50 -2 -88q4 -90 16 -142q4 -14 5 -21v-9.5t2.5 -12t8.5 -6.5q5 2 7 6t2 10t1 9q10 34 28 102q6 22 10 32q26 70 80 208q24 60 34 91q1 4 3 8.5t5 10t4 8.5q12 25 35.5 76t35.5 77q2 6 3 8 q23 37 80 158q1 2 2.5 5.5t2.5 5.5q21 30 53.5 88.5t40.5 71.5q100 166 146 222q8 10 40 54q36 48 134 134q15 13 34 25q2 1 15 9.5t20 13.5q10 9 21 16.5t25 15t21.5 12.5t26 13t23 10t26.5 11.5t24 10.5q12 6 20 3q15 -5 41 3q59 19 142 5q48 -8 71 -13q61 -13 94 -38z " />
<glyph unicode="X" horiz-adv-x="1724" d="M1365 1055q0 1 -1 3v-2l-1 -2q1 0 1 0.5t1 0.5zM1051 326q-2 4 -4 6q-5 5 -6 -1v-4q1 -1 3.5 -2t3.5 -1t3 2zM1033 572q0 1 -1 2v2q0 2 -3.5 5t-5.5 2q-11 -7 -12 -16q0 -3 1 -4t4 -1q3 2 8.5 5t8.5 5zM1256 910q1 0 3.5 0.5t3.5 1.5q7 12 14 25l-3 6q0 1 -1.5 1t-2.5 -1 q-8 -4 -17 -27zM1202 849q2 1 11.5 2.5t13.5 5.5q1 1 19 31l-3 2q-29 -19 -33 -22q-9 -7 -8 -19zM1187 823q-5 -5 -15 -11.5t-16 -12.5t-7 -15q-2 -10 -16 -23.5t-15 -24.5q0 -8 -10 -18q-20 -20 -29 -30q-7 -7 -12 -17q-3 -6 -5.5 -12.5t-5 -14.5t-4.5 -12q0 -1 2 -3t4 0 q5 6 20.5 21t21.5 25q13 22 27 31q16 10 18 22q1 7 15 25q8 11 25 42q7 13 2 28zM877 390q-27 -18 -45 -53q-16 -31 -45 -65q-27 -31 -52 -76q-8 -15 -30 -39q-2 -2 -24 -16q0 -3 1 -10t1 -11q-26 -14 -53 -57q-3 -3 -7.5 -10t-6.5 -11q-12 -17 -20 -27q-2 -2 -10 -9 t-10 -12t-5.5 -9t-9 -8.5t-7.5 -6.5q-1 -1 -1 -3t-0.5 -5t-0.5 -5q22 9 34 25q8 10 23.5 28.5t19.5 22.5q7 7 10 14q13 28 35 45q14 10 11 26q8 2 11 4q1 1 16 19q4 5 21 24t26 32.5t14 28.5q1 4 7 10q12 12 30.5 38t25.5 34q7 9 7 15q0 4 1.5 8.5t3.5 6.5t6 6.5t5 6.5 q11 14 18 28q1 0 0 5.5t-1 6.5q24 0 32 15q4 7 16 13t14 8q-7 28 -10 37q-2 4 -6 4t-6 -4q-7 -26 -31 -59q-1 -2 -4 -7t-4 -8zM267 1081q13 8 14 8q8 2 25.5 6.5t30.5 7.5t26 3q6 0 12 4q50 29 60 38q6 6 19 15.5t17 13.5q11 8 31 25t31 26q39 32 53 43q45 35 91 42 q15 2 16 3q43 15 81 -7q19 -11 39 -14q12 -1 25 -16q33 -38 38 -92q4 -39 8 -117q5 -97 46 -231l24 -81q3 -7 3 -17q0 -17 3.5 -34t11.5 -39.5t11 -31.5q1 -4 10 -6q4 0 6 4q22 36 86 120q11 14 82 117q18 27 97 127q3 3 8 9t9 11t7 10q13 23 67 81q7 7 19 21.5t17 19.5 l27 27q1 1 28 31q46 50 93 79q15 9 43.5 29.5t32.5 23.5l63 42q30 17 96 31q47 11 128 -19q16 -5 31 -32q3 -5 1 -12.5t-8 -9.5q-6 -3 -12 -3q-23 1 -48 -14q-20 -12 -44 -12q-43 -2 -79 -24q-16 -10 -92 -61q-10 -6 -13 -10q-12 -15 -50 -45q-20 -15 -53 -51t-36 -39 q-21 -21 -55 -63t-49 -59q-7 -7 -42 -53q-2 -2 -14.5 -18t-19.5 -25q-20 -27 -27 -38q-28 -45 -50 -67q-6 -6 -10 -13q-20 -34 -84 -122q-10 -13 -69 -101q-5 -7 -13.5 -18t-11.5 -15q-11 -16 -4 -32q6 -14 17.5 -38.5t20.5 -45t16 -39.5q27 -71 70 -154q52 -98 95 -154 q2 -2 7.5 -9t7.5 -11q14 -24 52 -55q30 -25 80 -35q25 -5 44 10q6 4 18 14l18 15q3 2 22 13q18 10 24.5 8.5t18.5 -20.5q2 -2 5 -8q0 -3 -1.5 -11t-2.5 -12q-2 -18 -4 -25q-6 -21 -28 -30q-40 -16 -78 -8q-61 11 -81 20q-22 4 -42 12t-49.5 25.5t-37.5 21.5q-13 7 -43 34 q-45 42 -77 90q-66 101 -96 163q-9 19 -26.5 57t-26.5 57q-7 15 -13 17q-5 -3 -6 -4q-3 -3 -34 -43q-5 -7 -17 -21.5t-17 -21.5q-1 -1 -2.5 -2t-2.5 -2t-1 -2q-6 -19 -29.5 -47.5t-30.5 -43.5q-5 -10 -27 -32q-14 -14 -45 -56q-51 -72 -86 -109q-46 -49 -81 -91l-9 -9 q-127 -110 -165 -138q-48 -35 -73 -42q-4 -1 -21 -13q-27 -21 -90 -35q-22 -5 -37 -8q-27 -5 -62 3q-50 11 -111 65q-13 11 -12 21q8 5 28 1q20 -5 46 0q66 11 71 13q49 15 77 32q44 28 80 54q6 4 21 14.5t23 16t19 15.5t19 20q7 7 9 8q18 11 60 53q9 9 27 26t27 26 q24 24 35 37q92 110 136 167q32 41 89 118.5t75 101.5q38 50 50 62q3 3 8 11t7 11q-1 2 -2.5 6t-3 7t-3.5 5q-9 13 -21 41q-32 78 -46 127q-6 18 -8 28q-14 58 -21 73q-6 14 -20 64q-2 7 -6 20t-6 20q-1 2 -2 6t-2 6q-3 19 -9.5 58t-9.5 59q-2 10 -4 16q-7 18 -12 75 q-6 64 -10 101q-1 0 -5.5 1t-6.5 0q-79 -40 -109 -64q-7 -6 -113 -81q-8 -6 -17.5 -12t-21.5 -13t-18 -11q-30 -18 -75 -25q-15 -2 -37 -8q-5 -1 -14.5 -3.5t-14.5 -3.5q-68 -14 -104 46q-3 6 -16 34q1 0 4 2q2 2 3 1q21 -10 53 -8q0 1 19 0h19q1 -1 3 -2q4 -3 6 -4 q1 -1 6 2q-1 0 -2.5 2t-2.5 2q-2 0 -5.5 -0.5t-5.5 -0.5z" />
<glyph unicode="Y" horiz-adv-x="1687" d="M432 715q-1 -2 -1 -7l2 -2q2 4 2 7q-2 1 -3 2zM880 -286h16q3 0 4.5 4t-0.5 5q-3 3 -7 3q-10 -2 -13 -12zM331 452q-9 -22 -10 -28l1 -2l1 -2q1 0 2.5 0.5t2.5 1.5q8 14 3 30zM987 589q-1 0 -4 -0.5t-5 -1t-3 -1.5q-5 -6 -33 -47q-5 -7 1 -9q22 17 43 60q13 12 15.5 16.5 t4.5 21.5q-2 -3 -9.5 -10.5t-9.5 -12.5v-16zM401 643q1 1 5 2t5 3l12 30q1 2 -1 9q-7 -8 -13.5 -25.5t-7.5 -19.5v-4q-1 -3 1 -3v2t-0.5 3t-0.5 3zM351 498q5 -1 7 2t2 8l-1 4q-6 0 -6 -3q-1 -4 -1 -12q0 -1 -2 -3t-2 -3h2q0 1 0.5 3.5t0.5 3.5zM303 352q-7 -5 -8 -7 q-1 -6 -1 -18q-17 -19 -25 -60q-1 -6 -1 -14.5v-14.5l-6 -33q0 -1 3 -4q2 7 28 110v4v3.5v4v4.5q7 7 8 9q1 5 1 16l5 5q2 2 0 4q-3 2 -5 -2q0 -1 0.5 -3.5t0.5 -3.5zM1423 896l3 1q3 1 2 4q0 -1 -2 -3t-2 -3l-3 -6q-2 -4 1 -4h2v4q0 1 -0.5 3.5t-0.5 3.5zM1214 902 q16 6 30 28q9 16 29.5 44t27.5 39q34 54 55 99q5 11 18 27q17 20 17 42q1 1 3 1.5t3.5 0.5t2.5 1l2 2q22 29 42 67q2 4 -2 8q-1 1 -3.5 0.5t-3.5 -1.5q-36 -50 -43 -80q-1 0 -5 -2t-5 -4l-21 -27h-7q-1 0 -1 4q6 16 11 22q8 10 20 31t18 30q23 32 33 58q3 7 15 26q9 15 28 8 q3 -1 9.5 -3.5t9.5 -3.5q1 2 2.5 4.5t3 4.5t2.5 3q7 11 18 9q23 -2 32 -7q48 -26 67 -57l2 -2q2 -3 2 -5q9 -48 0 -66q-16 -32 -25 -48q-11 -18 -12 -32q0 -8 -5 -16q-16 -28 -66 -158q-3 -7 -9 -19q-9 -17 -10 -23q-13 -48 -42 -128q-4 -11 -11 -31.5t-13 -37t-12 -30.5 q-17 -41 -38 -120q-9 -34 -18 -52q-4 -8 -9 -24.5t-7 -22.5q-1 -4 -7.5 -28.5t-12.5 -36.5q-5 -10 -5 -20q-2 -23 -15 -38q-2 -3 -5 -10.5t-4 -8.5q-2 -4 -5 -13t-5 -14q-7 -14 -8 -20q-6 -31 -34 -94q-53 -112 -60 -125q-6 -10 -7 -16q-3 -16 -15 -41.5t-15 -36.5 q-2 -6 -16 -30q-70 -118 -104 -178q-8 -15 -26.5 -38.5t-22.5 -29.5l-12 -15t-11 -15q-30 -44 -112 -108q-6 -6 -11 -7q-105 -41 -135 -47q-59 -12 -146 2q-67 11 -144 46q-68 31 -116 76q-14 14 -15 19q-1 6 -7 15t-6 15q0 8 3 12q5 8 10 6q24 -7 33 -24q7 -13 20 -20 q40 -23 68 -43q44 -33 101 -37q55 -5 137 19q9 3 19.5 7t23.5 9t20 8q49 18 97 66q39 39 57 67q17 24 26 28q6 -2 17.5 -7t15.5 -7q9 4 25 12q5 -8 -1.5 -21.5t-3.5 -19.5q-15 -5 -22 -23q0 -1 2 -3q1 -1 3 0q17 13 17 27q4 0 6.5 1.5t4 3.5t4 6t3.5 5q23 33 54 90 q30 55 53 91q8 12 25 48q67 142 72 152q33 61 46 108q5 19 18.5 55t14.5 40q2 5 5 14.5t4 13.5q4 13 11 28q11 21 15 43q2 9 5 19t7 22t6 19t11 32q9 30 19 46q12 21 12 40q0 10 6 28q10 28 28 84q1 5 33 91q1 3 3.5 8l3.5 7q2 6 5.5 20t5.5 20q-2 4 -6 0q-9 -12 -27 -57 q-5 -12 -12.5 -35.5t-12.5 -35.5q-1 -2 -9 -19q-11 -21 -18 -41q-2 -7 -9 -20.5t-10 -21.5q-1 -4 -6.5 -15.5t-7.5 -19.5t-1 -17q0 -6 -4 -12q-6 -9 -8 -36q-7 -68 -42 -136q-5 -7 -6 -15q-9 -33 -15 -44q-3 -4 -5 -16q-3 -24 -26 -75q-11 -27 -12 -36q-1 -18 -13 -35 q-8 -12 -18 -34.5t-13 -28.5q-6 -12 -16.5 -35t-13.5 -30q-38 -78 -56 -118q-3 -8 -13 -21t-12 -17q-2 -3 -8.5 -12.5t-9.5 -17t-4 -15.5q-1 -4 -10 -18l-13 -17q-13 -18 -17 -28q-1 -1 -3 -2t-3 0q-4 2 -4 6q0 11 1 18q-13 3 -14 3q-6 3 -3 11l-1 -1q5 7 5 9.5t-5 9.5l1 -1 q12 35 41 82q14 23 21 46q12 40 35 71q8 12 10 19q10 34 25 48q1 1 4 12q16 45 35 80q2 3 21 50v3t1 2q27 52 43 113q2 6 9 20t8 23l15 48q5 15 13 45q2 8 11 30.5t11 36.5q8 20 23.5 67.5t26.5 71.5q14 30 24 58q3 10 8.5 30.5t8.5 30.5q7 20 15 42.5t18 50t15 42.5 q3 9 8 26t8 26q4 14 11 32q40 102 59 153v13q-14 -4 -18 -19q-7 -23 -42 -82q-9 -15 -16 -29q-4 -8 -8.5 -16t-10 -17.5t-8.5 -14.5t-8 -14t-9.5 -16t-9.5 -12q-3 -3 -6 -9.5t-4 -8.5q-9 -14 -29 -42q-2 -2 -6.5 -8t-6.5 -9q-12 -22 -22 -44q-7 -3 -12 -7.5t-11.5 -14.5 t-7.5 -12q-14 -18 -16 -29q-1 -9 -12 -16q-7 -5 -13 -10.5t-14.5 -16.5t-10.5 -13q-7 -7 -7 -14q0 -15 -17 -38q-20 -27 -54.5 -75.5t-63 -88.5t-55.5 -75q-83 -110 -139 -164q-1 -1 -19 -22q-28 -31 -53 -49q-22 -15 -45 -38q-25 -24 -83 -56q-27 -16 -36 -23 q-19 -14 -54 -31q-12 -5 -33 -16.5t-27 -14.5q-5 -10 -22 -16t-21 -9q-5 -4 -16 -4q-70 6 -96 24q-6 5 -28 19.5t-34 23.5q-32 25 -42 62q-21 77 -5 133q5 17 12.5 51t12.5 51q25 87 36 113q18 42 20 64q1 8 7 24q3 9 14.5 39.5t20 50t19.5 37.5q4 8 5 12q4 22 33 81 q5 10 5 12q1 18 19 50q15 29 25 67q4 14 14.5 40.5t14.5 38.5q5 17 16.5 46t15.5 40q12 34 32.5 97.5t24.5 74.5q7 23 4 50q0 3 -2 3h-4q-3 -2 -7.5 -7t-9 -9t-8.5 -6t-14.5 -3t-14.5 -2q-16 -4 -49 -23q-62 -37 -149 -104q-18 -14 -77 -50l-8 -4q-28 -23 -107 -35 q-54 -9 -89 35q-16 20 -24 48q-2 6 5 11q2 1 12 -1q2 0 2 -4q7 -16 31 -16q60 0 120 34q14 8 25 16q32 23 94 71q2 2 22.5 17t30.5 24q36 31 107 67q15 7 68 21q18 5 33 -4q20 -11 50 -8q23 3 48 -11q10 -6 15 -8q45 -23 50 -77q2 -28 -2 -42q-3 -9 -7.5 -27.5t-6.5 -26.5 q-3 0 -8 -0.5t-8 -1.5t-5 -6q-3 -7 -3 -16q-3 -55 -36 -107q-9 -15 -13 -26q-7 -25 -14 -40q-3 -6 -3 -20q0 -18 -9 -28q-10 -11 -18 -37q-1 -4 -3 -8.5t-5 -10t-4 -8.5q-7 -14 -20 -43.5t-19 -44.5q-6 -16 -4 -25q2 -5 -3 -20q-21 -64 -41 -97q-16 -26 -22 -58 q-8 -43 -25 -62q-15 -16 -15 -47q0 -24 -14 -39q-6 -8 -10 -22q-2 -9 -23 -67q-4 -12 -15 -40.5t-17.5 -49.5t-9.5 -42q-4 -28 -5 -42v-19v-19q-2 -20 17 -64q7 -17 27 -15q57 4 115 38q4 2 12.5 7t13.5 8q80 43 156 121q14 14 123 134q17 20 34 43q11 15 38 45.5t39 48.5 q7 11 20.5 29.5t16.5 22.5q14 20 43 59.5t43 59.5q4 6 16 20q34 40 47 60q1 1 5 7.5t6 9t6 7t8.5 7t9.5 4.5q-6 -14 -7 -16q-5 -6 -14 -18t-13 -19q-16 -23 -16 -33q-11 1 -18 -9q-5 -7 -10 -14.5l-11 -16.5t-9 -14q-2 -2 1 -7q22 20 27.5 27.5t18.5 34.5q8 7 23.5 25.5 t25.5 25.5q2 2 5 7t4 6q15 20 18 23q20 19 53 73q11 18 14 34z" />
<glyph unicode="Z" horiz-adv-x="1644" d="M59 11l-1 1v2l-2 -1q-1 0 -1 -1t3 -4v1q1 1 1 2zM593 622q1 0 2 -0.5t2 -0.5q1 2 1 3h-1q-1 1 -2 1q-2 0 -2 -3zM132 157q7 3 7 4q2 5 -2 7q-2 2 -5 0.5t-3 -5.5zM885 817q-6 4 -8 4q-9 0 -7 -9q0 -1 2.5 -2.5t3.5 -0.5q3 2 9 8zM819 785q-2 -10 -4 -24q0 -4 5 -4 q15 6 20 23q0 6 -4 6q-3 1 -8.5 0t-8.5 -1zM291 358q-25 -7 -26 -26q-28 -6 -38 -41h-1q-19 -11 -20 -12q-10 -10 -8 -18q1 -3 1 -10t1 -12t5 -9l-15 -3q-2 -1 -4 -5t-2 -5v-3q2 -2 3 -2q17 3 18 19q46 26 57 34q8 5 8 8q0 8 4 13t11 10.5t10 8.5q5 5 13.5 13t15 14.5 t12.5 13.5q30 35 45 49t49 39q12 9 22 19q12 12 19 17q36 23 65 64q2 2 10 8q9 6 27 16.5t31.5 20t23.5 20.5q4 4 7 4q9 1 20.5 12t17.5 13q15 6 33 32q18 25 28 31q9 6 27 30q16 0 31 12q8 8 0 15q-1 0 -4.5 -2t-5.5 -4q-8 -8 -20 -22q-8 2 -19.5 -6.5t-18.5 -7.5 q-8 -12 -8 -13q-14 -14 -22 -19q-7 -5 -15 3q-1 1 -3.5 2.5t-4.5 3.5q-2 -1 -9.5 -4.5t-11.5 -6.5q-2 -1 -4 -11q-1 -1 -3 -1q-4 0 -4 -3q1 1 3 2.5t3 2.5q8 0 12 -1q3 0 6 -5q2 -5 -2 -7q-9 -4 -32 -25q-5 -4 -15.5 -13t-16.5 -14q-8 -7 -22 -1q-8 4 -11 4t-5.5 -2.5 t-6.5 -12.5q-23 -3 -26 -26q-4 -3 -12.5 -8t-13.5 -8h1q-16 -2 -23 -8q-1 -1 -31 -28q-20 -17 -22 -18q-16 -7 -24 -23q-10 -22 -27 -30q-24 -12 -21 -37q1 -3 -2.5 -4.5t-6.5 -0.5q-8 2 -13 4q-5 -5 -15 -14.5t-15 -13.5q-2 -2 -5 -6t-5 -6zM1110 1295q9 8 19 14t29.5 14 t21.5 9q34 16 44 25q1 1 22 13q32 20 67 0q35 -21 59 -59q15 -21 6 -53q-15 -54 -45 -90q-1 -1 -3.5 -2.5t-3.5 -2.5q-33 -51 -75 -84q-12 -9 -23 -30t-35 -35q-36 -21 -60 -59q-16 -24 -30 -35q-13 -11 -35.5 -32t-29.5 -28q-9 -8 -26 -22.5t-25 -21.5q-3 -3 -52 -43 q-6 -5 -18 -14.5t-18 -14.5q-7 -6 -14 -12.5t-15.5 -15t-13.5 -12.5q-86 -80 -161 -137q-29 -22 -81 -66q-15 -12 -44.5 -37t-43.5 -37q-14 -11 -28 -18q-16 -7 -23 -23q-6 -16 -26 -19q-19 -4 -31 -26q-7 -12 -9 -13q-8 -4 -15 -8.5t-15 -12.5l-11.5 -11.5t-12.5 -14.5 t-11 -13q-1 -1 -3.5 -4.5t-4.5 -4.5q-30 -18 -49 -46l-3 -3q-22 -9 -44 -49q-17 -16 -42.5 -50t-34.5 -44q-3 -3 -22 -36q-2 -5 2 -7q5 -2 7 -1q27 12 53 25q20 10 43 19.5t54.5 20.5t44.5 16q12 5 35 14.5t35 13.5q57 22 71 27q118 39 152 50q24 7 82 20q17 5 33 -1 q11 -4 33 0q11 2 161 33l21 3q26 1 134 15q23 3 42 2q88 -3 164 -20q19 -4 55 -20q118 -51 195 -144q25 -29 34 -67q1 -5 -1 -21q-1 -6 -11.5 -14t-17.5 -7q-8 0 -15 5q-5 4 -14.5 12.5t-14.5 12.5q-26 21 -97 50q-2 1 -13.5 5t-17.5 7q-53 24 -123 31q-9 1 -25.5 3.5 t-24.5 3.5q-12 2 -17 2q-20 1 -60.5 4t-61.5 4q-75 6 -79 6q-44 6 -72 2q-133 -15 -159 -21q-13 -3 -48.5 -9t-54.5 -12q-18 -5 -55 -14t-55 -14q-57 -15 -81 -24q-116 -42 -263 -103q-16 -6 -23 -11q-11 -9 -43 -15q-8 -1 -24.5 -2t-24.5 -3q-21 -5 -39 13q-9 9 -27 20 q-20 11 -24 33q-8 35 -4 84q0 2 2 8q41 96 89 141q8 8 9 10q6 12 16.5 25t17 19t23 20.5t20.5 17.5q5 4 16.5 14t17.5 15.5t14 15t14 18.5q2 4 6 6q15 5 32 26q16 20 24 28q22 24 36 29q8 2 10 7q7 15 31 32t31 25q8 9 17.5 17.5t22 19t19.5 16.5q10 9 30 26.5t30 26.5 q49 43 132 104q5 4 14.5 12t17 13.5t15.5 9.5q9 6 12 12q11 24 40 42q17 11 34.5 26t38 34.5t32.5 29.5q6 5 21 19.5t26.5 23.5t23.5 16q6 3 10 7q19 22 60 59.5t58 55.5q35 37 103 111l24 24q4 4 18 22q-3 0 -6.5 0.5t-4.5 0.5h-3q-27 -15 -79 -37t-70 -31 q-54 -27 -114 -44q-1 0 -3.5 -0.5t-4.5 -1t-4 -1.5q-51 -20 -126 -32q-30 -5 -55 -5q-28 0 -84.5 0.5t-84.5 0.5q-39 0 -59 2q-5 1 -50 -2q-56 -3 -63 -2q-27 2 -67 -21q-2 -1 -6.5 -5t-7.5 -5q-42 -16 -66 -64q-12 -4 -19 -6q-22 -7 -36 15q-6 8 -4 16q4 19 10 31 q21 38 58 61q1 0 1 1l2 1q45 34 102 36q18 0 34 3q51 10 109 2q7 -1 46 -1q136 0 181 6q49 7 82 18q7 2 21.5 6.5t23 7.5t20.5 8.5t21 12.5q3 2 10 1.5t11 0.5q32 12 46 21q37 23 67 19q18 -2 24 13q3 11 18 15l12 3v1l-1 -1q-2 -1 -2 -2q-3 -5 -1 -8q0 -1 2.5 -2t3.5 0 l18 9q8 8 -3 13z" />
<glyph unicode="_" horiz-adv-x="1294" d="M1123 -200l1 1v1h-1q-1 -1 -2 -1q1 0 1 -0.5t1 -0.5zM838 -141l1 -2l1 2h-2zM998 -97q0 -1 -0.5 -2t-0.5 -2l2 2q0 1 -0.5 1t-0.5 1zM939 -145q0 2 -1 2h-2q0 -2 1 -2h2zM638 -144l-1 2q-3 0 -5 -1l1 -3q1 0 5 2zM554 -141l-4 -4l2 -2q1 0 5 2l-2 2t-1 2zM1057 -102 l-1 -2h3zM1061 -146l2 2q-1 1 -1 3t-1 3l-4 -4zM1010 -146q1 0 2.5 1t2.5 2q-2 2 -4 3l-2 -2q0 -3 1 -4zM634 -102q28 -4 85 0h11.5h14.5h12q5 0 19 -1t22 0q6 1 20 4t20 3q13 1 30 -2q5 -1 14 2.5t14 1.5q9 -3 37 2q11 2 13.5 0t6.5 -15l4 -6q4 16 6 25q7 1 20.5 1.5 t20.5 0.5q2 1 4 5.5t3.5 6t7.5 -1.5q5 -3 21 -19l5 25q15 7 30 1q-3 -2 -7 -3.5t-5 -2.5l4 -4q7 0 20.5 1t20.5 1q2 0 4.5 -1.5t5 -4t4.5 -3.5q0 2 1.5 9t2.5 12q16 5 21 -9q5 -13 13 -39q8 -30 20 -42q4 -4 6.5 -10.5t3 -11t1.5 -14t1 -12.5q0 -2 -6 -10q-134 -6 -145 -7 q-23 -3 -65.5 -3.5t-58.5 -1.5q-14 -1 -57 -1t-66 -4q-18 -3 -38.5 -4.5t-45 -2.5t-38.5 -2q-20 -1 -61.5 -3.5t-62.5 -4.5q-31 -2 -92.5 -7t-92.5 -8q-16 -1 -48 -2.5t-48 -2.5q-43 -2 -85 -9q-75 -15 -109 -11q-13 1 -26 14q-27 29 -39 82q-2 8 -4.5 23.5t-3.5 21.5 q8 3 25 4.5t25 6.5q9 1 65 6.5t86 6.5q2 0 175 12q20 2 30 0q5 -1 14 2.5t14 2.5q2 0 4.5 -0.5t4.5 -0.5t3 -1q5 -7 21 -7q15 0 45 2q88 7 110 6q5 0 13 4h-1z" />
<glyph unicode="a" horiz-adv-x="706" d="M319 661q2 3 8 21q-6 9 -18 34.5t-24 42t-31 27.5q-3 -3 -8.5 -6.5t-8.5 -6.5t-5 -6q-7 -13 -16.5 -25.5t-23.5 -27.5t-20 -22q-97 -115 -141 -262q-13 -43 -2 -104q0 -2 3 -4.5t4 -3.5q28 -1 53 22q30 27 56 59q63 77 174 262zM723 629h49q-17 -38 -51 -132 q-25 -70 -95 -191q-72 -123 -100 -163q-47 -66 -81 -87q-30 -19 -67 -8q-74 21 -100 95q-23 66 -15 157q2 22 6 43.5t11.5 48.5t11.5 40.5t16 47.5t14 41q18 54 41 121q-1 0 -2.5 0.5t-2.5 0.5q-12 -20 -17 -30q-61 -121 -167 -258q-39 -51 -68 -74q-28 -22 -61.5 -21.5 t-61.5 23.5q-81 67 -55 179q36 153 116 248q8 11 25 32t26 32q26 30 65 49q34 17 79.5 8t70.5 -38q20 -24 48 -60q6 9 18 25q11 14 13 13q14 -4 30.5 11.5t29.5 14.5q46 -3 70.5 -40.5t6.5 -79.5q-6 -14 -21.5 -44.5t-21.5 -47.5q-67 -170 -86 -229q-39 -122 -16 -258 q1 -4 6 -16q33 5 68 41q84 89 161 243q40 80 102 248q1 3 2.5 8t2.5 7z" />
<glyph unicode="b" horiz-adv-x="782" d="M352 316q-125 -25 -262 -131q0 -3 -1.5 -15t-1.5 -18q0 -8 3 -15q9 -31 41 -24q24 5 41 13q106 50 183 183q0 1 -3 7zM106 255q2 0 5 0.5t5 1.5q13 6 37 18l44 22t38 18q67 30 143 60q29 11 40 44q4 11 12 31.5t11 30.5q7 20 5.5 50t-9.5 50q-5 -2 -23 -8t-27 -10 q-44 -19 -108 -81q-71 -68 -173 -219v-8zM137 668q1 -1 3.5 -3t3.5 -3q2 1 14 6t17 9q84 57 93 64q106 84 207 195q185 204 296 464q12 28 38 106q9 27 -13 43q-33 -43 -116 -89q-4 -2 -6 -4q-120 -89 -191 -183q-11 -15 -32 -44t-32 -44q-113 -147 -181 -285 q-12 -24 -101 -232zM31 186q-68 32 -82 111q-8 46 4 69q7 13 3 29q-10 42 9 87q4 11 20 82q7 32 26 51q1 7 1.5 18t1.5 18.5t2 13.5q14 60 65 179q75 176 178 318q8 11 47 65.5t61 82.5t85 96q59 64 85 86q53 46 99 75q75 47 165 25q41 -10 59.5 -49t1.5 -78 q-14 -35 -48 -97t-42 -79q-57 -117 -97 -173q-63 -91 -166 -211q-78 -92 -213 -200q-82 -66 -136 -90q-5 -2 -45 -17q-60 -162 -64 -316q5 4 12.5 9t9.5 8q6 9 18.5 27.5t18.5 27.5q96 136 198 213q43 32 97 47q8 2 64 17q36 -16 46 -21q37 -20 42 -75q0 -3 0.5 -25t4.5 -36 q10 6 34 18.5t36 19.5q22 13 169 105q18 12 33 19q23 12 39 8t36 -28l-4 -2t-3.5 -2t-3 -1.5t-2.5 -0.5q-26 7 -65 -17q-56 -37 -247 -155q-35 -21 -56 -67q-65 -144 -141 -218q-5 -5 -16.5 -19t-19.5 -21q-44 -37 -70 -49.5t-82 -22.5q-10 -2 -15 -1q-96 17 -139 77 q-7 9 -11 29q-1 4 -3 40z" />
<glyph unicode="c" horiz-adv-x="489" d="M602 633q2 0 7 -0.5t7 -0.5l-1 -1q-12 -13 -52 -58t-62 -69q-7 -8 -50 -43q-100 -82 -151 -122q-9 -7 -33.5 -22.5t-36.5 -26.5q-27 -24 -65 -49q-27 -17 -63 -11q-106 19 -150 132q-13 33 -2 89q11 54 69 181q36 79 133 201q51 64 136 48q56 -11 68 -67q0 -3 1 -9.5 t2 -9.5q2 -16 -3 -56.5t-12 -62.5q-17 -2 -24 -1q-34 4 -31 36q0 8 1.5 17.5t4 21.5t3.5 18q4 25 -1 41q-78 -90 -80 -92q-75 -92 -121 -208q-31 -79 -43 -133q-7 -31 12 -79q7 -19 29 -14q46 11 63 20q58 30 96 59q16 13 73 55t92.5 71t67.5 62q52 54 77 82q1 1 2.5 3 t2.5 3q18 -5 34 -5z" />
<glyph unicode="d" horiz-adv-x="747" d="M-16 341q31 1 68 32q6 5 19 17.5t21 18.5q41 32 83.5 78.5t65.5 77.5t66 93q21 30 16 60q-3 2 -27 20q-5 -4 -14.5 -12t-14.5 -12q-40 -32 -43 -33q-51 -25 -104 -73q-12 -11 -23.5 -25.5t-17.5 -24t-18.5 -30.5t-16.5 -27q-18 -29 -56 -115q-2 -4 -4 -45zM486 829 q1 -1 4 -3t4 -3q85 69 93 76q63 58 121 121q89 96 148 170q62 78 132 207q27 51 21 113q-2 24 -16 30q-4 -3 -12 -10t-14.5 -12t-13.5 -8q-10 -4 -20.5 -10t-18.5 -10.5t-18.5 -13.5t-16 -13t-16.5 -15.5t-14.5 -14.5t-16 -16.5t-14.5 -15.5q-111 -116 -195 -285 q-13 -26 -43 -85.5t-46 -91.5q-5 -11 -48 -110zM286 545l-30 -36q-58 -80 -152 -154q-10 -8 -11 -11q-4 -11 -12.5 -20.5t-14.5 -13.5t-21 -11.5t-18 -9.5q-17 -9 -33 -6q-60 13 -94.5 67.5t-7.5 112.5q49 106 106 185q46 64 127 113q97 58 193 16q9 -5 11 -5h4t5 -1 q3 2 11 8q4 3 14 9q-2 14 -2 17q16 68 19 75q40 108 145 302q10 19 19 38q13 29 30.5 56.5t45.5 64t38 51.5q9 14 19 26.5t23 27t21 23.5t24 25l22 22t25.5 24.5t23.5 22.5q15 15 37.5 23.5t38 10.5t44.5 4q69 4 114 -55q13 -16 18 -46q11 -64 -40 -151q-78 -133 -171 -240 q-119 -137 -235 -243q-52 -49 -136 -111q-43 -33 -52 -78q-37 -174 -43 -229q-12 -111 27 -238q33 -5 65 22q60 51 101 118q24 39 67.5 115t64.5 110q30 50 54 121q6 19 15 35q13 23 32 23q1 -1 5 -5.5t6 -7.5q4 -6 8 -17q-17 -54 -46 -114.5t-50.5 -98t-62.5 -104.5 q-50 -83 -95 -138q-53 -65 -101 -101q-28 -21 -62 -10q-48 15 -76 59q-57 88 -57 203q0 18 3.5 52.5t4.5 44.5v26q-1 1 -3.5 1t-4.5 1z" />
<glyph unicode="e" horiz-adv-x="485" d="M178 661q60 40 91 69t41 60q-13 -12 -45 -38t-52 -46.5t-35 -44.5zM55 283q63 -10 111 19q141 82 255 253q18 27 76 108q17 22 27.5 20.5t25.5 -26.5q-3 -8 -4 -10q-20 -26 -65.5 -87t-81 -105t-72.5 -81q-16 -16 -47 -42.5t-37 -31.5l-54 -45q-58 -51 -131 -24 q-51 18 -84 62t-38.5 91.5t7.5 92.5q4 11 13.5 40t18 49t18.5 37q33 54 53.5 85.5t56.5 73t74 70.5q8 6 20.5 18t24 20t23.5 12q59 19 105 -12q34 -23 27 -63q-8 -40 -31 -67q-64 -79 -156 -139q-14 -9 -71 -40q-17 -9 -29 -31q-39 -79 -54 -149q-10 -49 19 -98z" />
<glyph unicode="f" horiz-adv-x="636" d="M232 1089q-12 -1 -15 -4.5t-1 -15.5q5 6 16 20zM124 878q-1 0 -2.5 1t-2.5 2q-2 -3 -5.5 -8.5t-5.5 -8.5q1 0 3 -2t3 -2q1 3 4.5 9t5.5 9zM212 1041q-2 1 -4 3.5t-3.5 4t-3.5 1.5q-1 1 -4.5 -2t-3.5 -4q3 -7 8 -10l2 1q2 1 4.5 3t4.5 3zM192 549q-2 8 -3 27t-6.5 32.5 t-19.5 22.5q-12 -30 29 -82zM-2 -7q21 14 52.5 59.5t50.5 91.5q2 6 14.5 37t16 39.5t13.5 36t14 39.5t11.5 36.5t10.5 40.5t6.5 37t5.5 41q-50 50 -58 60q-2 2 -43 71q-46 -98 -81.5 -298.5t-12.5 -290.5zM775 1596q-56 -29 -85 -45q-6 -3 -16 -11q-93 -90 -110 -110 q-95 -106 -211 -279q-75 -110 -108 -198q-4 -10 -23 -53q-13 -29 -40 -86.5t-40 -86.5t-9 -45q24 -3 44 14q66 53 89 75q115 112 190 190q98 104 129 160q5 9 12 18t17.5 21.5t17.5 21.5l2 4q1 5 3 10.5t5 9.5q12 19 35.5 58t34.5 58q26 44 37 64.5t25 59.5t17 73 q3 48 -16 77zM-78 276q-4 -4 -11.5 -12.5t-11.5 -12.5q-3 71 25 138q2 -1 7.5 -2.5t9.5 -2.5q4 15 11.5 44.5t11.5 44.5q-1 2 -4 5t-4 5l-4.5 4.5t-5.5 6.5q13 9 27 20q3 9 15.5 44.5t19.5 56.5q-4 -2 -12 -6.5t-12 -6.5v17q61 171 74 201q15 35 33.5 75t41.5 87t36 74 q44 93 106 182q61 86 154 210q20 27 66 77q77 82 102 102q79 65 159 41q59 -17 72 -65q4 -12 14 -36q10 -21 4 -61q-11 -69 -69 -172q-73 -131 -221 -329q-15 -20 -46 -55t-40 -46q-26 -32 -61.5 -68.5t-55.5 -56t-70 -66t-61 -56.5q26 -84 27 -88q3 -12 4 -43.5t8 -47.5 q38 -14 108 1q106 25 226 132q33 30 59 57q22 22 44 6q9 -19 -7 -33q-69 -67 -84 -80q-39 -35 -67 -54q-44 -29 -81 -46q-110 -49 -188 -33q-3 1 -16 -1q-2 -9 -11 -43q-11 -43 -17 -55q-13 -30 -31.5 -89.5t-30.5 -86.5q-19 -46 -41 -83q-5 -9 -18 -29t-19.5 -31.5 t-14.5 -29.5t-11 -34q-5 -28 -31 -37t-51 8q-81 55 -91 147q-8 78 2 147q1 5 7 28l14 -38q1 9 5 35t6 40q12 15 0 37v-37z" />
<glyph unicode="g" horiz-adv-x="796" d="M316 126q-4 21 10.5 58.5t14.5 57.5q-23 -21 -63 -57q-121 -107 -161 -140q-31 -25 -75 -74q-4 -5 -47 -50t-60 -73q-4 -7 -32 -48.5t-41 -65.5q-9 -17 -61 -129q1 -10 2.5 -30t2.5 -29q1 -37 29.5 -60t66.5 -17q6 1 16.5 3.5t19.5 4t17 1.5q31 -1 72 34q34 28 45 53 q6 12 31.5 50.5t30.5 63.5q2 6 7 9q6 4 10 9.5t5.5 9t4 13t3.5 11.5q24 70 37 105q0 1 14 12l-3 15q4 11 11.5 38t15 46t18.5 35q7 10 9 25q2 18 14 49.5t15 45.5q1 4 4 8t9 9t8 7zM305 -68q16 8 7 34q-3 -5 -8.5 -15t-7.5 -15q2 0 5 -2t4 -2zM282 -148l14 42l-6 6 q-16 -8 -17 -10q-12 -19 9 -38zM238 -208q2 0 7 -0.5t10 -0.5l-7 8q-1 -1 -4.5 -3.5t-5.5 -3.5zM223 -183q14 19 9 32q-2 0 -8 -0.5t-9 -0.5q1 -5 4 -15.5t4 -15.5zM222 -183q-1 -1 -4 -5t-3.5 -6t-2 -5.5t-0.5 -7t3 -7.5q1 5 3.5 15.5t3.5 15.5zM212 -317q5 7 5 8t-5 4 q-1 -1 -5 -7q2 -3 5 -5zM165 -405q18 3 18 29q-13 -20 -18 -29zM142 -376l2 6q-3 0 -7 1t-7 2v-7q2 0 6 -1t6 -1zM138 -446v3q-3 1 -10 1t-11 1v-5h21zM426 663q3 5 9 14.5t8 11.5q-23 44 -82 88q-11 -5 -12 -5q-50 -46 -79 -63q-26 -15 -47 -40q-72 -88 -105 -135 q-49 -71 -62 -198q0 -1 7 -8q125 59 180 118q4 4 17.5 19.5t21.5 23.5q57 56 144 174zM848 649q5 -1 15 -1q-7 -6 -14 -11q-82 -53 -146 -110q-61 -55 -133 -101q-43 -29 -61 -77q-47 -127 -59 -161q-8 -22 -36.5 -101.5t-44.5 -122.5q-104 -276 -127 -334 q-43 -107 -125 -172q-55 -43 -155 -56q-45 -6 -111 31q-13 8 -36 25.5t-27 20.5q-54 38 -47 112q5 51 22 86q86 184 204 303q80 82 182 164q7 6 20 18t20 18q25 21 75.5 61t75.5 61q18 15 35 32q11 11 13 18q3 8 17 51.5t22 66.5q12 34 56 158q6 19 4 32q-10 -10 -14 -16 q-129 -167 -246 -281q-23 -22 -55 -41q-21 -11 -42 -29q-23 -19 -51 -23t-53 10q-47 29 -62 82q-14 48 10 142q15 61 85 156q52 72 112 124t140 49q50 -2 110 -46q25 -19 57 -44q9 7 28.5 22.5t29.5 23.5q23 18 51 3q41 -23 52.5 -51t-4.5 -72q-11 -30 -74 -184q28 15 29 16 q27 22 80 65.5t80 64.5q11 9 33 25q12 -2 25 -3.5t28.5 -3t24.5 -2.5q-2 1 -6.5 1t-6.5 1z" />
<glyph unicode="h" horiz-adv-x="659" d="M82 751q-2 -7 -5.5 -20t-4.5 -20q24 18 10 40zM106 818q-6 -15 -12 -33q21 10 12 33zM138 873q-2 -3 -4.5 -8.5t-3.5 -7.5l6 -3q1 3 3 8.5t4 7.5zM177 787q-4 -7 -7 -16t-6 -19.5t-5 -16.5q16 8 59 41q149 118 260 272q151 211 229 344q21 36 31 62q20 55 1 113 q-5 -3 -28.5 -23t-36.5 -27q-63 -34 -112 -89q-80 -93 -120 -162q-33 -55 -132 -215q-28 -46 -70.5 -137t-62.5 -127zM255 1104q-2 -3 -10.5 -15t-12 -17.5t-7 -16t-3.5 -20.5q7 10 20.5 31.5t19.5 32.5q-1 1 -3.5 2.5t-3.5 2.5zM706 650q21 -10 38 -13q-21 -34 -44 -73 q-15 -25 -44 -75.5t-44 -75.5q-69 -116 -114 -186q-15 -26 -43 -55l-96 -96q-18 -18 -47 -12q-28 6 -52 30.5t-28 52.5q-11 81 18 132q13 24 20 47q14 42 49.5 114.5t45.5 97.5q10 24 72 169q3 7 8 24t7 24q-78 -27 -120 -74q-11 -13 -49 -55t-61 -71.5t-41 -61.5 q-7 -13 -22.5 -34.5t-20.5 -29.5q-40 -61 -60 -118q-2 -6 -6 -12.5t-10.5 -15.5t-9.5 -13q-50 15 -83 26q-19 6 -23 34q-1 10 -1.5 29t-0.5 25q-2 85 45 236q7 23 28.5 77t29.5 84q15 57 69 152q11 19 27.5 57t25.5 55q50 89 130 222q9 15 77 117q71 109 151 178 q47 42 90 60q49 22 100.5 5.5t79.5 -62.5q20 -33 12 -80q-11 -68 -75 -160q-16 -23 -43 -66t-34 -54q0 -1 -1 -3q-1 -3 -2 -4q-21 -14 -43 -51.5t-30 -47.5q-32 -36 -96 -116.5t-100 -120.5q-61 -67 -165 -153q-24 -20 -74 -56q-34 -24 -48 -74q-2 -6 -12 -43.5t-15 -57.5 v-29q4 5 13 15.5t12 15.5q75 127 193 234q75 68 149 79q73 10 107 -47q18 -29 3 -72q-31 -92 -67 -157q-7 -13 -52 -110q-69 -147 -96 -242q-1 -4 -2 -9.5t-1.5 -13t-1.5 -12.5q21 2 44 23q75 69 152 196q19 32 65 106t70 114q32 54 47 81z" />
<glyph unicode="i" horiz-adv-x="385" d="M184 912q4 -1 20.5 -4.5t25.5 -4.5q35 -6 54.5 4.5t35.5 42.5q36 71 50 96q14 26 61 99q21 33 11 55q-19 42 -74 51q-35 6 -57 -36q-72 -132 -107 -198q-24 -46 -20 -105zM379 639q21 -9 46 -9q-64 -95 -118 -156q-68 -75 -191 -171l-30 -18q-65 -36 -120 17 q-24 24 -34 37q-22 28 -17 77q5 52 50 155l96 201q8 16 20 28q16 17 30.5 19.5t35.5 -8.5q4 -2 11.5 -7.5t11.5 -7.5q27 -15 25 -49q-2 -33 -16 -55q-60 -97 -80 -138q-4 -9 -15.5 -32t-17 -35t-13.5 -31.5t-14 -36.5t-10 -34q-10 -40 -5 -63q30 -2 65 20q173 112 289 296z " />
<glyph unicode="j" horiz-adv-x="364" d="M210 612q2 4 5 9t4 8q48 125 100 219q33 60 41 109q11 73 -60 88q-8 2 -44 4q-15 -28 -18 -35q-9 -23 -28.5 -69t-28.5 -68q-11 -28 -35 -82t-36 -82q-15 -33 9 -50q19 -15 67 -46zM-24 30q14 15 22.5 45.5t6.5 59.5q-5 -18 -14.5 -53t-14.5 -52zM-24 7v22 q-6 -1 -17.5 0.5t-20.5 0.5t-17 -9h37q-3 -21 -13 -101q-9 -11 -13.5 -24t-8 -31t-5.5 -26q25 46 27 81q11 29 31 87zM-61 63q-1 1 -3.5 -0.5t-2.5 -2.5q0 -2 2 -5t2 -4q1 0 4 2t6 3q-7 6 -8 7zM-95 49q1 3 1.5 6t2 8.5t2.5 9.5q-52 -38 -144 -104q-31 -22 -98.5 -77.5 t-107.5 -81.5q-9 -6 -12 -11q-9 -10 -29.5 -34.5t-35 -43t-26.5 -37.5q-59 -96 -59 -183q0 -29 -1 -35q-17 -77 48 -144q17 -18 36 -20q48 -3 99 29q21 13 55 64q13 19 56 98q52 98 77 146q26 -1 31 2t9 20q-6 -2 -20 -4q-17 14 -3 36q8 13 15 26t13 30t9.5 27t10.5 31.5 t9 28.5q14 43 62 213zM-96 -36q1 3 2.5 9t2.5 9q-1 0 -3 0.5t-3 0.5l-4 -17zM-123 -300q2 8 6 21.5t6 20.5q-12 -16 -13.5 -21t1.5 -21zM-143 -185q1 2 3 7.5t3 8.5q-1 0 -4 0.5t-4 0.5q-1 -3 -1 -8.5t-1 -8.5h4zM422 462h9l-7 -7q-20 -25 -78 -49q-18 -8 -30 -22 q-19 -25 -54 -27q-3 -5 -10.5 -16.5t-12 -17.5t-12 -13.5t-17 -10.5t-21.5 -2q-4 -12 -6 -19q-3 -1 -15.5 -6.5t-17.5 -8.5t-12 -10.5t-10 -17.5q0 -3 -3 -3q-11 -5 -19.5 -11t-14.5 -17.5t-8.5 -17t-8 -22l-6.5 -19.5q-7 -21 -28.5 -80.5t-32.5 -92.5q-10 -29 -41 -125 t-50 -148q-46 -125 -102 -223q-7 -12 -17 -35t-12 -28q-58 -121 -160 -157q-97 -35 -189 27q-5 4 -34 27q-77 68 -72 190q5 115 69 208q71 104 147 165q98 79 246 191q22 17 67.5 49.5t67.5 49.5q16 11 23 30q16 41 44 125q27 83 79 249q7 24 20 30.5t36 -1.5 q5 -2 13.5 -5.5t11.5 -4.5q32 -13 43 -37.5t-1 -56.5q-10 -27 -29.5 -80.5t-29.5 -80.5q-2 -5 -7 -28q6 4 32 23t37 30q20 19 44 37t55.5 39t47.5 33q3 2 8.5 6.5t8.5 6.5q29 -16 59 -16z" />
<glyph unicode="k" horiz-adv-x="665" d="M222 545q48 3 76 12t63 33q47 33 51 37q48 42 75 73q32 34 20 74q-21 4 -28 3.5t-19 -7.5q-6 -4 -31.5 -19t-40.5 -25t-29 -22q-24 -22 -121 -126q-18 -20 -16 -33zM154 841q-7 -19 -21 -56.5t-21 -56.5q1 -1 3 -2.5t3 -1.5q5 4 17 11t21 13t16 13q135 124 178 169 q165 175 264 341q77 130 94 221l9 36t8 36q7 26 -5 39l-20 -10q-24 -24 -56 -33q-6 -2 -16 -10l-30 -24t-34.5 -28.5t-27.5 -25.5q-6 -6 -41 -40t-47 -47.5t-34.5 -40.5t-37.5 -52q-23 -39 -31 -49q-85 -109 -154 -296q-7 -18 -19 -53.5t-18 -52.5zM730 637q24 -9 44 -10 q-54 -78 -116 -164q-55 -77 -79 -101q-30 -30 -108 -89q-18 -14 -76 -47q-44 -26 -90.5 -17t-74.5 51q-58 84 -68 152q-1 6 -3.5 16.5t-3.5 13.5l-1 1q-3 1 -5 3q-56 -57 -84 -118q-13 -28 -22.5 -39.5t-31.5 -26.5q-16 2 -25 4q-52 10 -63 25t-11 67t20 154q11 56 41 166 q16 57 45 141q44 122 68 182q69 173 123 255q14 21 41.5 64t41.5 64q12 17 40 47q125 141 177 186q21 17 33 21q90 34 164 26q41 -5 62 -30.5t15 -65.5q-14 -96 -26 -142q-9 -36 -39 -88q-11 -20 -70 -108q-70 -103 -81 -119q-70 -99 -136 -165q-17 -16 -47 -51t-47 -52 q-8 -8 -110 -99q-1 0 -1 -1l-2 -1q-60 -62 -126 -67q-46 -153 -58 -264q2 3 6.5 7.5l6.5 6.5q10 14 36 52.5t41 59.5q7 10 21.5 25.5t19.5 21.5q93 114 187 187q56 44 121 48q77 5 121 -57q15 -20 7 -60q-17 -86 -78 -130q-86 -62 -149 -99q-36 -20 -98 -22q-12 0 -48 -2 q0 -59 13 -99q5 -15 35 -83q10 -22 38 -19q13 1 26 5t21.5 7t23.5 12t19.5 11.5t22 14.5t19.5 13q80 55 146 145q22 30 66 90.5t66 90.5z" />
<glyph unicode="l" horiz-adv-x="561" d="M823 1464q0 5 2.5 19t2 24.5t-5.5 20.5q-64 -33 -93.5 -53.5t-78.5 -64.5q-106 -97 -214 -261q-116 -178 -180 -314q-34 -70 -50 -105q-6 -14 -25 -60q17 0 24 7q166 145 192 170q185 175 323 369q98 137 103 248zM39 456q4 8 5 13h-5q-1 -2 -3 -6.5t-3 -6.5l1 -1v-2 q4 2 5 3zM6 458q1 2 3.5 7.5t3.5 8.5q-1 0 -3.5 1t-3.5 1q-1 -3 -3 -8.5t-3 -7.5q1 0 3 -1t3 -1zM-27 375q1 4 3.5 10.5t3.5 9.5q-1 1 -2.5 1t-2.5 1q-1 -3 -3.5 -10t-3.5 -10q1 -1 2.5 -1t2.5 -1zM-82 59q2 1 7.5 2.5t8.5 2.5q0 2 -1 4l-2 4l-15 -8q0 -1 1 -2.5t1 -2.5z M877 1555q16 -39 12 -80q-11 -108 -64 -202q-2 -4 -5.5 -12.5t-5.5 -12.5q-1 -3 -4 -10t-5.5 -12t-6.5 -8q-18 -16 -34 -35.5t-36.5 -48.5t-28.5 -40q-18 -23 -36 -41q-50 -52 -63 -87q-6 -14 -14 -19q-20 -15 -39.5 -35t-40.5 -46t-34 -40q-81 -87 -179 -162q-7 -5 -50 -43 q-39 -34 -75 -40q-32 -6 -44 -43q-4 -13 -23 -62q-4 -11 -20 -51t-23 -62q-23 -69 -42 -150q-28 -115 -35 -211q-7 -107 -4 -140q1 -13 13 -52l15 -15q8 5 30.5 18.5t34 21t28 20t29 26t22.5 29.5q28 44 65 93q8 10 43 46.5t47 59.5q94 115 237 353q44 -5 70 -3h4v1h9 q-21 -44 -73 -118.5t-88 -119.5q-2 -3 -18.5 -21t-30.5 -34t-16 -22q-10 -28 -30.5 -55t-51 -59.5t-43.5 -48.5q-15 -18 -57 -84q-2 -2 -8.5 -13t-9 -14.5t-8.5 -12t-10 -13.5t-10.5 -11t-13.5 -11q-8 -6 -16 -14.5t-17.5 -19.5t-14.5 -17q-43 -48 -123 -21q-94 32 -119 124 q-7 25 -8 46q-4 93 9 139q4 14 4 23q6 109 53 283q8 29 30.5 82t24.5 59q51 136 57 149q19 47 61 139q44 94 68 140q22 41 70 121q34 56 52 83q78 120 119 178q11 17 35.5 45t28.5 33q50 61 121 127q66 63 133 78q56 12 118 -10q23 -8 35 -35z" />
<glyph unicode="m" horiz-adv-x="942" d="M949 575h2q-7 -14 -29.5 -59.5t-34.5 -70.5q-23 -48 -59.5 -93t-56.5 -79q-51 -84 -73 -111q-26 -33 -84 -81q-19 -17 -52 -4q-51 19 -78 75t-10 108q0 1 1.5 2l3 2t3.5 3q2 -12 6 -34l8 4q-1 42 3 53q7 21 11 34q6 22 16.5 48t19 43.5t22.5 46.5t21 44q10 20 29 59 t29 59q1 2 16 42h-15l-3 2q2 4 20 41t28 58q-28 -3 -51 -34q-41 -55 -45 -59q-66 -72 -121 -146q-7 -9 -49 -75q-6 -9 -40 -67q-9 -16 -10 -21q-5 -29 -30 -36q-41 -12 -60 -1q-4 3 -14 7q-39 21 -39 49v6.5v7v6.5t0.5 7l1.5 6t2.5 6.5t3 5.5t4.5 6t6 5t5.5 6.5t5 12 t3.5 11.5q-6 -1 -13.5 -3t-11.5 -3q10 29 20 57q3 -1 9.5 -4t10.5 -5q9 18 28 55.5t28 57.5q-6 10 -8 19t2 20.5t6 16.5t10 19q15 28 35 73q2 4 5 24q-4 -2 -9.5 -4.5t-9 -4.5t-5.5 -4q-90 -85 -147 -181q-66 -111 -106 -186q-10 -18 -40 -88q-10 -22 -37 -81q-29 -12 -61 3 q-5 2 -14.5 8t-12.5 8q-33 17 -33 57q0 131 44 247q11 29 35 84.5t35 84.5q12 28 39 26q50 -4 74 -30q17 -18 19 -32.5t-8 -37.5q-76 -160 -83 -176q-23 -52 -21 -93q7 12 35 58t41 72q61 129 170 251q50 55 102 77q55 24 98 -15q45 -40 20 -95q-12 -27 -26.5 -57.5 t-32.5 -68t-28 -57.5q-5 -10 -3 -19q4 5 12.5 15.5t12.5 16.5q100 129 117 151q34 46 104 98q18 13 65 9q24 -2 47 -27.5t25 -49.5q6 -50 -18 -94q-95 -173 -156 -318q-11 -25 -17.5 -42t-11 -35.5t-6.5 -27.5t-7 -37t-8 -45q-1 -6 -1 -38q41 15 60 41q21 29 56.5 60.5 t57.5 71.5q83 151 109 203q24 49 41 89q21 -9 45 -9z" />
<glyph unicode="n" horiz-adv-x="733" d="M340 409q4 4 6.5 9t4 12t2.5 10q3 8 15 45t24 55q4 5 5 12.5t1 11t-1.5 15.5t-1.5 13q-5 -2 -8.5 -5t-5.5 -7t-3 -6.5t-2.5 -7.5t-2.5 -7q-3 -9 -16.5 -55t-24.5 -70q-29 -66 -20 -113q1 5 16 31.5t8 45.5q-2 7 4 11zM774 656q14 0 26 3q-100 -175 -127 -222 q-28 -46 -115 -176q-5 -7 -13.5 -7.5t-13.5 -5.5q-26 -25 -43 -60t-58 -50.5t-78 -1.5q-24 9 -39 18q-45 26 -48 78q-4 84 24 165q10 29 25.5 84t20.5 71q2 7 10 20.5t10 19.5q4 13 11 39.5t11 39.5l57 174q3 8 6 31q-37 -7 -60 -37q-25 -32 -48 -56q-45 -47 -84 -126 q-27 -54 -40 -70q-31 -37 -61 -99q-33 -68 -69 -135q-3 -5 -31 -44q-4 1 -17 3t-19 4q-30 10 -46 26t-19 46q-7 61 8 132q27 128 65 224q4 10 31 91q41 25 99 -13q33 -22 18 -75q-4 -12 -13 -34.5t-12 -30.5q-10 -29 -31 -87.5t-31 -88.5q-2 -5 -3 -20q14 21 15 23 q102 180 195 301q57 73 116 101q64 30 125 -12q39 -27 28 -76q-27 -112 -51 -167q-88 -205 -122 -345q-9 -38 -11 -127q12 -11 31 -1q14 9 21 17q8 9 49.5 47t59.5 69q13 22 40 63t38 59q37 60 72 120q9 15 58 103q5 -1 16 -3t17 -2z" />
<glyph unicode="o" horiz-adv-x="530" d="M259 479q50 53 101.5 225.5t35.5 238.5q-2 -1 -6.5 -3t-6.5 -4q-114 -94 -177 -242q-26 -60 -20 -134q6 -66 73 -81zM189 359q39 45 52 76q-68 43 -76 49q-11 8 -22 18.5t-24.5 24.5t-21.5 22q-5 -8 -22.5 -36.5t-27.5 -42.5q-42 -60 -48 -173q-2 -35 23 -55q60 15 93 42 q27 22 74 75zM547 613q26 -13 51 -13q-14 -12 -41.5 -36.5t-41.5 -36.5q-27 -23 -47 -34q-49 -26 -79 -49q-10 -7 -28 -11l-36 -6t-32 -5q-1 -2 -6 -8.5t-8 -11.5q-42 -67 -118 -145q-5 -5 -27 -21.5t-30 -29.5q-11 -19 -42 -15q-76 9 -132 66q-49 49 -46 128q2 28 11 57 q24 76 56 128q38 59 52 87q31 61 82 70q2 5 6 16t7 17q56 122 176 251q24 25 62 27q43 2 69 -9q52 -21 57 -76q8 -88 -32 -217q-1 -2 -3.5 -8.5t-3.5 -9.5q-13 -80 -73 -183q-4 -6 -7 -14t-7.5 -19.5t-8.5 -19.5q9 4 33 12.5t35 13.5q83 39 152 105z" />
<glyph unicode="p" horiz-adv-x="700" d="M437 707q9 34 2 60q-66 -3 -110 -57q-74 -90 -134 -171q-13 -17 -97 -141l-18 -30l-7 -14t-8 -14q39 13 80 37q10 6 28.5 17.5t30 18.5t28.5 15t32 13q68 22 97 83q4 8 14.5 29.5t15 31t13 28.5t13.5 31.5t10.5 29.5t9.5 33zM233 323q8 9 47 66q-1 1 -3 3.5t-3 3.5 q-4 -2 -10.5 -5.5t-9.5 -5.5q-130 -75 -151 -88q-23 -14 -43 -34q-25 -25 -6 -52q13 -19 46 -5q26 12 42 27q62 58 91 90zM184 231q24 9 37 46q-9 -5 -15 -12t-12.5 -18.5t-9.5 -15.5zM-40 339q2 6 6 16.5t6 15.5q-1 1 -3 1t-3 1q-2 -5 -6.5 -15.5t-6.5 -15.5q2 0 3.5 -1 t3.5 -2zM-99 200q4 9 10 21l8 16q-25 -7 -18 -37zM-120 140q6 10 7.5 13.5t0.5 10.5t-8 13q-6 -13 -6 -17t6 -20zM-149 42q9 30 15 60l-7 13q-105 -286 -146 -492q1 -1 4 -2t4 -1q12 20 12 22q9 41 31.5 115t29.5 100q7 27 16.5 58t21.5 68.5t19 58.5zM-291 -209q7 -7 7 -6 q13 7 9 25q-3 -3 -8 -9.5t-8 -9.5zM-174 197q-1 -8 -1.5 -16t-1.5 -19.5t-2 -19.5q11 11 15.5 24t7 30t6.5 28q-6 -7 -13.5 -15.5t-10.5 -11.5zM508 522q-10 -14 -15 -28q-10 -12 -20 -28q-70 -127 -161 -238q-38 -46 -91 -84q-26 -17 -38 -18q-117 -10 -183 73 q-5 6 -9 13.5t-8 18t-7 15.5q-98 -254 -127 -388q-3 -12 -10 -38t-10 -38q-20 -81 -46 -197q-3 -13 -3 -38q-1 -38 -1 -113q0 -27 -13 -39q-42 -2 -90 33q-16 11 -20 41q-11 72 1 140q7 41 14 64q2 6 9 19.5t9 17.5q-13 43 19 81q-4 5 -2 20.5t3 20t5.5 19.5t5.5 20 q10 36 29 101.5t25 85.5q4 1 12 4.5t12 4.5q-9 9 -15 14q4 12 14 47.5t16 54.5q1 3 6 8l6 6q4 26 8 38q40 110 57 148q12 27 38 95t44 103q11 21 21 46t22 57l18 48q10 24 22.5 31t37.5 3q60 -9 73 -49q8 -23 2 -41q-23 -68 -44 -94q-16 -21 -25 -62q17 22 22 29 q100 133 117 155q48 61 115 104q21 14 49 24q52 20 101.5 -12.5t55.5 -88.5q4 -41 -19 -111q-3 -8 -8.5 -23t-8.5 -23h3q0 -2 -1 -5t-1 -5q-11 -18 -16 -42z" />
<glyph unicode="q" horiz-adv-x="927" d="M501 -24q47 118 40 208q-3 38 -23 56q-5 5 -17 15.5l-20 17.5q-6 -13 -16.5 -32.5t-14.5 -27.5q-53 -112 -57 -119q-44 -80 -84 -179q-87 -220 -103 -265q-11 -30 -32.5 -89.5t-32.5 -89.5q-8 -26 12 -36q1 0 13.5 7.5t17.5 12.5q48 45 64 67q20 27 63 98q71 121 118 206 q43 78 72 150zM111 -415q2 4 10.5 30.5t15.5 38.5q10 17 17.5 36t16.5 45.5t13 37.5q2 5 5.5 16.5t6 18t7 14.5t9.5 14q19 22 19 51q0 3 1.5 6.5t4 8t3.5 6.5l24 57q1 2 5 6h16q4 10 7.5 33t12 37t29.5 20q0 2 -1 7t0 7q1 5 2 19t3 23t7 16q10 14 27 53q10 25 36.5 77 t37.5 81q14 11 26.5 40t21.5 39q1 1 1.5 4t0 6.5t0.5 8.5q-2 -2 -4.5 -3t-4 -1.5t-3 -1.5t-1.5 -2q-6 -14 -27.5 -47t-27.5 -55q-2 -10 -7 -14q-9 -8 -15 -17.5t-12 -26t-8 -20.5q-5 -11 -16.5 -29t-14.5 -24q-18 -30 -20 -38q-10 -34 -51 -75q-8 -30 -13 -44 q-4 -10 -11.5 -28t-9.5 -22q-19 -47 -55 -141q-17 -44 -51 -134q-17 -42 -25 -70q-2 -7 -21 -77q9 3 13 13zM963 643q20 -3 61 -5q-22 -22 -32 -33l-12 -15l-60 -72q-43 -52 -58 -67q-25 -26 -56 -48q-10 -7 -83 -51q-67 -40 -145 -55q-5 -1 -16 -4t-18 -4q10 -14 36 -36 q27 -22 30 -52q1 -6 3 -24t2.5 -26t0.5 -22.5t-2.5 -26.5t-7.5 -24q-4 -9 -7.5 -27.5t-5.5 -24.5q-10 -35 -31 -53q-17 -15 -16 -30q3 -28 -20 -52q-9 -9 -12 -24q-25 -84 -88 -180q-23 -35 -98 -168q-30 -53 -67 -85q-23 -19 -38 -39q-17 -22 -45 -17q-80 13 -126 64 q-40 47 -22 98q4 11 14 42.5t19 53t22 40.5q3 6 3 7q3 45 34.5 120t36.5 93q0 2 17 21q1 -3 3.5 -9.5t3.5 -9.5q9 20 8.5 24.5t-9.5 16.5q4 14 20 62q9 31 33 33v28q6 4 16 10v33q13 -7 33 -17q-19 52 9 101q9 16 22.5 48.5t20.5 46.5q22 43 65 123t50 94q2 4 15 28t17.5 34 t12 30t10.5 39q-63 -72 -71 -81q-90 -97 -121 -127q-20 -19 -83 -71q-7 -6 -22.5 -14.5t-17.5 -9.5q-33 -21 -41 -28q-20 -17 -50 -21t-53 8q-120 68 -78 195q49 142 104 207q33 40 52 52q2 2 7.5 5t8.5 6q58 57 175 42q54 -6 113 -48q26 -18 33 -56q3 -15 -8.5 -24.5 t-25.5 -4.5q-4 1 -32 15q-11 30 -16 39q-14 25 -39 12q-7 -3 -14 -8q-89 -56 -95 -60q-37 -27 -59 -56q-66 -87 -94 -203q-3 -11 -5 -65q5 1 10.5 1.5t9 1t6.5 1.5q141 55 272 204q92 103 161 190q17 21 68 51q20 11 44 5t42 -24q38 -40 19 -84q-3 -6 -8.5 -20t-9 -21.5 t-10 -18.5t-13.5 -19q-5 -5 -10.5 -16.5t-6.5 -13.5q-34 -57 -71 -121q-13 -22 -35 -62t-28 -50q-1 -2 -3 -15q98 28 158 58q82 41 148.5 103.5t144.5 155.5z" />
<glyph unicode="r" horiz-adv-x="632" d="M117 345q-2 -5 -6.5 -13.5t-5 -12t1.5 -13.5q16 10 10 39zM701 637q2 -1 27 -19q-6 -26 -10 -33q-11 -19 -26 -34q-18 -19 -38 -44t-30.5 -40t-34 -49.5t-29.5 -43.5q-17 -25 -42 -52q-80 -85 -97 -100q-89 -80 -169 -123q-2 0 -22 -14q-13 -8 -31.5 -22t-26.5 -18.5 t-22 -4.5t-29 10q-3 2 -18 10.5t-21 14.5q-21 23 -33 52t-14 64t15 69q9 20 43 104q33 80 38 93q24 68 95 172q-2 1 -5 4q-1 2 -2 2q-15 -6 -30.5 -8.5t-41.5 -4t-32 -1.5q-16 0 -19 1q-29 13 -47.5 23t-38.5 29.5t-30 43.5q-11 27 -3 46q19 45 26 56q10 15 86 120 q10 14 34 16t40 -10q9 -7 27 -23q24 -22 23.5 -46.5t-24.5 -46.5q-68 -60 -100 -123q-2 -3 -4 -11q35 -12 71 -2q12 3 34 9.5t33 9.5q14 3 42 7q59 10 104 -40q33 -38 1 -82q-21 -27 -95 -137q-50 -73 -83 -158q-12 -31 -50 -152q-6 -20 -6 -25.5t7 -25.5q25 0 46 16 q37 17 64 39q13 7 53 35q109 78 190 177q24 30 49 64t56.5 78.5t46.5 65.5q3 5 13 21t18.5 25.5t21.5 15.5z" />
<glyph unicode="s" horiz-adv-x="624" d="M-62 -246l4 4q-2 2 -5 5.5t-5 5.5l-4 -4q1 -2 5 -5.5t5 -5.5zM237 410q-1 0 -2 1l-2 2l-9 -12q0 -1 2 -2l2 -1zM55 -147q-5 -5 -13 -12.5t-12 -11.5q-1 -1 -22 -25q23 2 28 10q2 3 9 9t10 13t0 17zM228 356q-19 -18 -67 -31q-22 -6 -34 -23q-14 -21 -37 -39 q-15 -12 -71 -51.5t-82 -66.5q-7 -7 -17 -10q-46 -19 -73 -53q-14 -17 -41 -53.5t-42 -54.5q-30 -36 -53 -116q-4 -16 8 -37q31 -55 84 -50q7 1 29 -1.5t28 1.5q108 37 163 113q38 51 71 65q5 2 14 13q47 55 80 126q54 124 72 189q16 59 -2 103q-9 -2 -28 -7t-30 -8 q6 -2 14.5 -4.5t13.5 -4.5zM676 677q6 -7 16.5 -15.5t17.5 -16t10 -17.5q-16 -8 -17 -8q-31 -5 -49 -22q-22 -21 -47 -4q-2 -5 -5 -10t-7.5 -9t-7 -6.5t-9.5 -7t-9 -5.5t-10.5 -5.5t-9.5 -4.5q-126 -64 -142 -72q-4 -2 -59 -18q-11 -28 -11 -36t11 -38q26 -62 11 -162 q-11 -69 -43 -128q-5 -9 -20 -38t-24 -44q-53 -85 -126 -163q-68 -73 -98 -95q-90 -68 -194 -52q-93 14 -150 67q-66 62 -37 160q12 40 56 93q62 77 83 103q19 23 39 38q167 130 294 211q10 7 31 19t32 19q3 2 35 26q-10 54 -60 76q-59 26 -119 81q-36 33 -40.5 63.5 t15.5 65.5q30 63 34 69q12 20 44 54q92 102 147 144q20 15 31.5 15.5t30.5 -14.5l12 -9t12 -10q23 -20 22.5 -47.5t-23.5 -46.5q-12 -10 -46.5 -36t-51.5 -41q-78 -66 -111 -134q-5 -10 -12 -31l-8 -24q21 -15 59 -42.5t69.5 -50t60.5 -42.5q65 33 189 101.5t184 99.5z" />
<glyph unicode="t" horiz-adv-x="499" d="M210 957l-6 6q-1 -2 -5.5 -6t-5.5 -6l4 -4q2 2 6.5 5.5t6.5 4.5zM-65 222q5 -12 6 -13q3 -2 11 -2q0 1 1 3l1 2q-2 2 -8.5 5t-10.5 5zM-85 121h5v21h-4v-11t-1 -10zM55 534l-10 10q-2 -1 -5.5 -4t-4.5 -5q8 -8 10 -9zM131 751q10 30 16 47q-16 -9 -18.5 -21t2.5 -26z M115 726q-25 -27 -19 -49q9 8 13 26t6 23zM156 846q16 11 21.5 22t22.5 66q-12 -11 -19.5 -25.5t-13.5 -33.5t-11 -29zM-15 353q-30 -5 -45 33q20 98 59 201q3 -4 13 -16q2 3 6.5 9.5t6.5 9.5q-3 2 -7.5 6.5t-7.5 6.5q8 6 10 8q0 2 -2.5 12t-1.5 15q10 40 21 73 q13 38 62 176q21 57 29 71q13 24 27 71t22 66t24.5 57t25.5 57q8 18 23.5 53.5t23.5 52.5q2 4 6.5 12t6.5 12q15 4 25.5 -1.5t21 -18t17.5 -17.5q1 8 2.5 21t1.5 20q-21 9 -72 5q-68 -4 -107 3q-13 2 -78 -3q-24 -2 -73.5 -6t-74.5 -6q-2 0 -5 0.5t-7.5 1t-9.5 0.5 q11 6 21.5 8.5t21.5 3t17 1.5q11 2 31.5 3.5t24.5 1.5l-2.5 7.5l-2.5 7.5l-2 6q39 3 115 9q0 1 1 5t2 7h10.5t11.5 -1q3 0 9 -1.5t9 -2t8 0.5q16 7 33.5 9.5t42 3t33.5 1.5q2 0 4 0.5t5 1.5l6 2q25 43 77 133q6 11 31.5 58t40.5 72q9 17 18 20.5t28 1.5q34 -4 68 -48 q21 -28 -5 -66l-93 -138l-18 -27q8 -5 18.5 -8.5t17 -4.5t19.5 -2t17 -2q34 -4 52 -9q13 -4 19.5 -13.5t4.5 -20.5q-6 -24 -31 -27q-31 -3 -54 -1q-12 1 -34 5t-30 5q-7 1 -44 1q-16 -26 -21 -36q-62 -123 -100 -206q-4 -8 -55 -142q-65 -174 -88 -239q-11 -33 -30 -95 t-26 -83q-16 -48 -23 -72q-59 -210 -70 -256q-27 -120 10 -193q4 -7 12 -19q26 12 68 46q61 51 133 141q85 109 136 206q11 21 35.5 57t32.5 48l90 153q20 34 31 51q39 0 56 -22q-24 -38 -25 -40q-41 -49 -99 -152q-8 -14 -26.5 -38t-22.5 -30q-34 -47 -49 -104 q-10 -38 -45 -85q-15 -21 -46 -58t-44 -55q-79 -104 -153 -156q-47 -32 -89 -16q-10 4 -27.5 12t-24.5 11q-47 20 -68 88q-24 75 -1 173q4 15 10 44.5t9 43.5q7 28 19 37q7 -17 6 -26.5t-5 -27t-4 -27.5q6 -1 12.5 -2t14.5 -2t12 -2q25 33 14 59q-2 4 -4 26q18 4 26 27 q22 63 19 133q-16 -3 -20.5 -12t-5 -23t-4.5 -21q-5 -2 -17 -6l5 -8q-2 -44 -2 -52v-38z" />
<glyph unicode="u" horiz-adv-x="792" d="M858 661h29q-7 -13 -21.5 -39t-21.5 -39q-1 -2 -4 -6.5t-5 -8t-3 -6.5q-51 -118 -158 -281q-45 -72 -84 -106q-68 -60 -154 -21q-45 21 -74 62q-25 36 -24 76q3 106 39 230q26 85 41 158l-45 -60q-9 -13 -25.5 -41t-25.5 -42q-7 -9 -15 -19t-18 -22t-15 -19 q-4 -5 -11 -13.5t-13 -15.5t-10 -14q-37 -59 -134 -134q-30 -19 -50 -16.5t-54 23.5q-71 44 -44 132l30 117q13 47 69 185l30 81q17 47 65 30q43 -16 59 -54q5 -14 2 -26q-11 -36 -21 -54q-88 -174 -121 -324q-3 -14 -2.5 -17.5t6.5 -26.5q36 9 75 52q86 94 178 226 q17 24 49.5 70t49.5 70q46 66 50 72q5 0 18 2t20.5 2.5t18.5 -1t21 -6.5q28 -13 39.5 -42.5t-2.5 -59.5q-12 -23 -23.5 -51t-18 -45.5t-19.5 -54.5t-17 -48q-38 -106 -56 -242q-1 -9 -1 -55q0 -26 17 -44q44 0 82 38q59 61 95 108q76 101 149 247q15 30 39 74q6 -1 19 -1z " />
<glyph unicode="v" horiz-adv-x="788" d="M820 650h36q-61 -58 -73 -69l-45 -30q-33 -22 -50 -40q-43 -46 -118 -29q-37 8 -103 54q-25 17 -34 50q-1 4 -4.5 12t-5.5 13q-15 -13 -31.5 -42t-21.5 -35q-12 -16 -36 -60q-74 -134 -110 -201q-5 -9 -14 -36q-16 -46 -62 -40q-2 0 -9 2.5t-10 2.5q-58 4 -86 36.5 t-39 93.5q-2 11 -2 66q-1 60 9 170t11 141q1 13 -1 38q-3 32 13.5 46.5t44.5 9.5q49 -8 75 -37q22 -23 19 -52q-7 -68 -10 -81q-8 -47 -23 -118q0 -1 -0.5 -2t-0.5 -2q5 -22 -2 -61.5t-6 -56.5q2 -20 14 -120q0 -1 3 -2q30 50 89.5 150t88.5 150q27 46 57 89t82 112t63 84 h21q38 -1 49 -22t4 -60q-1 -7 -19 -38q-36 -57 -50 -105q-11 -42 1 -76q16 -44 57 -33q21 5 61 23q71 31 152 106q5 -1 16 -1z" />
<glyph unicode="w" horiz-adv-x="958" d="M1009 625q23 -8 46 -5q-22 -23 -33 -34q-10 -9 -35.5 -30t-37.5 -34q-39 -39 -104 -32.5t-90 49.5q-6 8 -12 15q-2 -4 -7 -11t-7 -11q-52 -122 -144 -250q-17 -23 -54 -55q-31 -27 -73 -11q-59 22 -88 73q-16 29 -16 71q0 16 5 152v38q-28 -38 -71.5 -106t-82.5 -121 t-83 -92q-52 1 -85 33t-35 85q-3 86 18 182q8 36 18 77t22.5 91.5t19.5 77.5q6 24 16 43q14 28 46 22q3 0 7 -2q52 -14 67.5 -42.5t-3.5 -80.5q-24 -62 -67 -231q-6 -22 -10 -47t-7.5 -59t-5.5 -48q0 -3 2 -28q20 2 34 24q102 155 128 196q17 28 47.5 80t41.5 71 q30 50 86 27t52 -77q-4 -57 -13 -80q-21 -57 -21 -110q0 -21 -3.5 -60.5t-3.5 -48.5q-2 -32 13 -61q19 -1 35 17q35 39 54 66q58 85 124 233q15 34 20 71q7 56 57 152q9 17 28 27q20 12 38.5 1.5t20.5 -33.5q2 -44 -16 -70q-5 -7 -10 -15t-8.5 -18t-6.5 -17t-6 -19t-4.5 -17 t-4.5 -20t-4 -18q-5 -20 1 -38q17 -56 68 -39q47 16 93 57q30 26 44 40z" />
<glyph unicode="x" horiz-adv-x="681" d="M745 668q14 -5 31 -7q-24 -44 -52 -100q-44 -84 -49 -93q-13 -21 -40 -58.5t-33 -46.5t-15.5 -25t-18 -29t-17.5 -24q-28 -33 -94 -68q-17 -9 -46 -5q-100 17 -163 68q-36 29 -52 63q-2 4 -4.5 7.5t-6 8t-6.5 8.5q-25 -25 -30 -32q-20 -28 -59 -85t-59 -85 q-55 -77 -120 -132q-23 -20 -50.5 -27.5t-61 2.5t-62.5 42q10 3 28.5 9t27.5 8q41 9 78 42q10 8 19 16.5t18.5 19.5t15.5 18.5t16.5 21.5t15 19.5t16 21.5t14.5 20q23 32 66.5 96.5t66.5 95.5q27 38 15 84q-28 119 -33 286v7q0 4 -0.5 14.5t0 16t4.5 12t12 9.5q41 15 75 0 q58 -27 54 -95q-1 -22 1 -154q22 18 24 20q14 14 39.5 40.5t46 47.5t39.5 40q31 31 94 55q19 8 57 6q30 -2 39 -36q-16 -4 -31.5 -14.5t-23 -18t-23.5 -24.5q-9 -10 -20 -19t-27.5 -20t-22.5 -16q-55 -40 -124 -128q-2 -3 -8 -10.5t-9 -10.5q-31 -31 -17 -71q16 -47 26 -89 q15 -67 85 -116q87 18 136 81q125 160 160 221q2 4 5.5 10t5.5 10q27 42 30 47q2 11 17 45z" />
<glyph unicode="y" horiz-adv-x="825" d="M426 195q11 2 13 4.5t1 14.5q-12 -16 -14 -19zM400 5q3 8 3 12t-2 16t-2 16q4 -1 11.5 -2t10.5 -1q-6 8 -6.5 16t2.5 20.5t3 15.5q-4 1 -10.5 4t-9.5 4q-7 -37 -8 -41q-9 -4 -13 -26q-14 -59 -25 -101q-30 -110 -40 -145q-6 -19 -12 -29q-24 -38 -20 -80q9 11 16 25.5 t10.5 25t9 29t8.5 26.5q1 4 6 19t7.5 21.5t7.5 17.5t12 18.5t16 13.5l-22 8q11 9 17.5 15t12 15t5 19t-7.5 21q2 2 8 6l9 6q0 3 -1 8t-1.5 8.5t0.5 8.5t5 10zM282 -317q-10 -16 -9 -19.5t16 -5.5q-3 9 -7 25zM246 -278q3 8 6 23.5t4 20.5l30 105l75 249q2 7 7 23.5t9 29.5 q-44 -26 -48 -29q-54 -41 -160 -123q-55 -42 -62 -46q-28 -16 -53.5 -37.5t-58.5 -54t-47 -45.5q-24 -22 -47.5 -54.5t-34 -50.5t-35.5 -63q-10 -18 -24 -54t-20 -50q-5 -11 -9 -22t-5.5 -22.5t-2.5 -21t1 -22.5t2.5 -20.5t4 -22.5t5 -20.5t6.5 -22t6 -21.5t7 -10l9.5 -9.5 t10 -9.5t10 -8.5t10.5 -8.5t11 -6.5t12.5 -5.5t13 -3t15.5 0q3 0 9.5 -2t9.5 -2q7 0 20.5 -1t24.5 -1.5t21 -0.5q20 0 22 21q-8 -1 -23.5 -7t-24.5 -7.5t-29 4.5q6 3 14.5 6t10.5 4q98 36 146 111q3 4 23 34.5t29 47.5q14 23 32 23q1 0 3 3q1 1 1 1.5t1 1.5q-6 18 -10 28 q3 1 7.5 3t7 3.5t3.5 1.5q5 40 6 43q11 33 25 61q3 6 11.5 17.5t11.5 18.5zM97 -605l7.5 10t6.5 10l-5 4q-3 -4 -8 -10.5t-7 -9.5zM2 -675q9 4 27 12.5t27 13.5q-37 3 -54 -26zM938 677q2 0 6 1t6 1q-24 -37 -31 -45q-7 -10 -16.5 -19t-22.5 -21t-19 -17 q-122 -118 -164 -155q-40 -35 -126 -97q-28 -20 -36 -49q-12 -40 -33 -109.5t-38 -127.5t-31 -110q-22 -84 -81 -236q-51 -131 -78 -182q-60 -114 -115 -166q-77 -72 -157.5 -83t-165.5 29q-15 6 -62 39q-43 29 -61 101q-8 34 -2 65q27 146 95 241q60 83 116 136 q14 13 42 40t42 40q12 11 38 28.5t29 19.5q157 119 173 132q86 68 133 96q19 11 27 40q7 28 27 96.5t29 106.5q8 31 20 91.5t15 75.5q-11 -13 -32 -38t-31 -37q-37 -44 -65 -72q-97 -97 -132 -126q-21 -18 -66.5 -46t-50.5 -31q-20 -12 -22 -15q-20 -24 -53 -8 q-35 16 -45 24q-41 31 -46 91q-6 61 20 153q22 82 66 171l54 120q18 42 56 30q29 -8 49 -23q41 -30 19 -73q-12 -25 -36.5 -71t-33.5 -63q-4 -8 -16.5 -31t-19.5 -39t-12 -32q-9 -29 -44 -186q-1 -3 -1 -23q18 -4 45 13q18 12 48 27q32 15 87 64q92 82 203 216 q3 4 22.5 29.5t31.5 37.5q38 40 54 101q9 34 24.5 42.5t49.5 -2.5q32 -10 44.5 -36.5t0.5 -58.5q-43 -113 -70 -235l-24 -90l-14 -56q100 70 242 212q15 15 32 32.5t38 39t32 33.5q1 0 1 -0.5t1 -0.5q6 -1 17.5 -2.5t17.5 -2.5z" />
<glyph unicode="z" horiz-adv-x="851" d="M486 136v34q-35 -15 -38 -18q-9 -8 -44.5 -28t-49.5 -38q-3 -3 -14 -8q-42 -22 -63 -35q-18 -11 -58.5 -44t-66.5 -46q0 -1 -1 -1t-2 -1q-24 -30 -96 -79q-44 -29 -92 -88q-64 -80 -85 -107q-1 -2 -20 -25.5t-22 -27.5t-18.5 -25t-20.5 -29t-16.5 -26.5t-17 -31 t-12.5 -29.5t-12 -33q-1 -6 -5 -11q-15 -28 -13 -72q3 -32 2 -35q-8 -45 30 -93q26 -33 62 -34q101 -3 161 46q63 52 85 75q83 86 151 198q56 91 63 108q5 13 13 26t18.5 30t15.5 25q6 11 12 15l20 5q4 -22 -11 -47q-20 -33 -26 -38q-7 -7 -11 -22t-8 -21q-14 -20 -42 -74 q-8 -15 -34 -63t-40 -74q-6 -11 -19 -31t-18 -28q-1 -1 -5 -19q30 19 71 72.5t45 74.5q5 4 13 10t13 10.5t8 9.5q7 10 19 36.5t22 38.5q1 2 0.5 3t-1 3.5t-0.5 4.5q19 5 30 26q2 5 12 22.5t13.5 25.5t8 22.5t5.5 27.5l9 10q16 11 15 26q-3 -1 -7 -3l-6 -3q-1 1 -2.5 2 t-2.5 2q3 36 4 41q16 49 33 92q16 42 10 62q-6 4 -16 10q6 12 7 12q48 26 37 95q-4 28 8 87zM905 682q2 0 7 0.5t7 0.5q-1 -2 -3 -8t-3 -8q-3 -6 -11 -23t-11 -27q-5 -15 -4 -26q8 -47 -32 -92q-18 -21 -20 -24q-6 -10 -13.5 -20t-13 -17.5t-16 -18.5t-15 -16t-17.5 -17.5 t-16 -15.5q-63 -63 -106 -90q-24 -15 -26 -52q-3 -70 -18 -139q-40 -192 -107 -333q-18 -39 -93 -167q-40 -69 -77 -125q-7 -12 -23 -31.5t-22 -27.5q-78 -111 -142 -165q-48 -42 -123 -87q-38 -23 -118 -17q-112 8 -205 116q-22 25 -28 95q-10 96 48 190q50 82 116 166 q61 78 131 149q11 12 25 22.5t33 23.5t28 20l156 123q9 8 39 26q222 142 233 149q46 28 40 77q-12 91 -12 92q-18 74 -90 53q-52 -15 -91 -34q-15 -7 -60.5 -28.5t-76 -37.5t-57.5 -34q-29 -18 -52 -17.5t-53 19.5q-5 23 15 54q136 215 279 370q13 14 41 42q1 1 4 12 q-13 -5 -55 -30q-7 -4 -20 -12t-20 -12t-33.5 -19t-39.5 -25q-58 -43 -104 -32q-41 10 -61 23q-49 33 -74 89q-9 21 5 64q19 56 70 135q14 22 45 15q45 -10 65 -46q17 -31 -13 -76q-43 -64 -53 -81q-8 -14 -9.5 -21t-3.5 -33q21 -17 65 -1q154 58 225 99q13 -4 18 -3t15.5 8 t15.5 9q17 4 36 27q22 26 36 35q36 26 70 -10q14 -15 15 -35.5t-12 -35.5q-19 -21 -80 -80q-16 -16 -50 -48t-51 -49q-79 -78 -142 -159l-50 -70q23 5 28 7q15 8 45.5 23t45.5 22q98 48 211 5q70 -27 103 -110q4 -9 12 -31q28 10 61 43q14 14 29.5 30.5t34.5 37t29 31.5 q41 44 63 98q16 40 56 116h25z" />
<glyph unicode="{" horiz-adv-x="548" d="M281 858h1l2 1l-1 1l-1 1l-1 -1h-2q1 0 1 -1t1 -1zM188 916v2h-1l-1 -1l1 -1h1zM145 959l1 -2v2h-1zM282 1276l-3 -1l3 -2v3zM105 -56v3q-1 0 -4 -1l1 -2q0 -1 1 -1t1 0.5t1 0.5zM147 778l-3 -1q0 -1 -0.5 -3t-0.5 -3q1 0 3 0.5l2 0.5q0 1 -0.5 3t-0.5 3zM112 30 q-4 2 -6 2q-1 0 -5 -2q1 0 3 -2t3 -2t2 2q2 2 3 2zM137 737l6 -6q3 0 4 1v3q-1 0 -2.5 0.5t-3.5 1t-4 0.5zM145 567q1 0 1 0.5t1 0.5q0 3 -0.5 9t-0.5 9h-1v-19zM447 1243q-1 -20 -22 -43q-22 -25 -44 -60q-24 -38 -40 -88q-3 -7 -9 -28.5t-11 -32.5q-7 -18 -17 -94 q-5 -42 -5 -75q0 -11 -1.5 -31t-1.5 -36.5t3 -31.5q1 -7 0 -24t2 -23q-1 -9 -1 -46.5t-7 -57.5q-1 -2 -6 -40q-5 -34 -35 -80q8 -12 11 -26.5t4.5 -33.5t3.5 -29q8 -45 4 -85q-2 -19 -8 -88.5t-13 -106.5q-12 -67 -3 -106q1 -3 1 -10q-4 -43 21 -86q7 -4 23 -6t24 -7 q6 -4 13.5 -5.5t18 -2.5t15.5 -2q12 -16 3 -23l-18 3l-4 -8q-79 -21 -174 12q-8 6 -28 17t-33.5 21.5t-23.5 24.5q-18 26 -23 63q-2 10 0 31t0 31q-4 25 0 60q1 8 3.5 31t4.5 36q2 9 4 27l3 27q3 19 6.5 55t4.5 44q7 61 -2 106q-4 18 -23 28q-6 3 -18.5 7.5t-16.5 6.5 l-32 16q2 4 10 18q5 -2 11 -5q4 3 11 10t11 10q3 2 11.5 4t11.5 8t13.5 6.5t13.5 2.5q-2 0 -5 2t-6 3q21 26 22 29q4 8 6 37q1 6 3 32t5 40q2 10 2 71q0 12 -1.5 40t-0.5 42q1 8 1.5 50.5t5.5 64.5v13q1 33 13 71q11 30 15 61q7 44 22 68q6 9 20 47q4 12 18 32t18 30 q15 12 22.5 17t24.5 11t30 -1q19 -5 94 -17q20 -3 45 -28z" />
<glyph unicode="}" horiz-adv-x="479" d="M195 567v-2h3zM171 691h-2q-1 -1 -1 -2h3v2zM100 234q0 1 1.5 3t2 4t0.5 3q-2 8 1 72v27.5t1 27.5q1 5 1.5 18t2 19.5t5 16.5t10.5 17q1 1 1 3q4 22 35 47q10 -1 30.5 -1.5t31.5 -0.5l-2 8q-7 5 -20.5 15.5t-20.5 15.5q-42 30 -46 80q-8 83 -8 92q0 52 5 68q3 10 5 29.5 t3 23.5q3 16 12 71.5t13 85.5q1 9 5.5 34.5t6 43.5t1.5 35q-2 58 -4 89q-1 6 -4 16t-4 14q-5 20 -27 28q-11 4 -66 29q-2 1 -11 10q23 7 43 4q70 -10 105 -16q68 -12 114 -64q20 -21 23 -53q7 -54 7 -68q0 -67 -3 -100q0 -3 -18 -115q-1 -10 -5.5 -30.5t-5.5 -30.5 q-2 -11 -1 -17q2 -16 -3.5 -43.5t-5.5 -38.5q0 -3 -5.5 -9.5t-0.5 -13.5l3 -23q2 -15 2 -89q0 -42 29 -62q20 -13 23 -15q3 -3 16 -18q-7 -7 -39 -17q-22 -7 -32 -28q-27 -57 -24 -127q1 -8 0 -48t-1 -48q0 -11 1 -17q3 -14 9 -54t12 -61q14 -54 14 -95q0 -8 2.5 -24 t2.5 -24q0 -36 -19 -65q-2 -2 -14 -10q-67 -35 -135 -28q-28 2 -69 13q-6 2 -60 26q-16 8 -26 14q8 5 10 5q32 0 41 -2q11 -2 20 0.5t20.5 10.5t15.5 10t11 13q17 23 12 37q2 9 3 19.5t1 19t-1 20.5t-1.5 18.5t-2.5 20t-3 18.5q-3 22 -6.5 47t-8 55.5t-6.5 47.5q0 2 -2.5 5 t-2.5 4q1 0 4 0.5t5 0.5v1h-9z" />
<glyph unicode="&#xad;" d="M633 367h-3q0 -1 0.5 -2.5t0.5 -2.5l2 2v3zM7 460q37 0 55 1q15 1 63.5 3.5t74.5 3.5q5 0 21 1t24 1t20.5 -1t22.5 -5q4 -2 7 0q10 7 28 6.5t28 1.5q9 4 17 -2q10 -7 36 -7q18 0 55 0.5t55 0.5q23 0 28 -2t15 2q3 1 3.5 3t0 3.5t0.5 2.5q4 5 10.5 4.5t9.5 -5.5 q25 -39 33 -53q3 -6 0 -9q-4 -6 3 -10q26 -15 40 -64q1 -5 -1.5 -14.5t-2.5 -11.5q-49 6 -96 12q-12 2 -16 -1q-12 -8 -47 -8q-97 0 -145 -1q-10 0 -21.5 -1t-25 -2.5t-21.5 -2.5l-99 -9q-5 -1 -23.5 -5.5t-29.5 -3.5q-10 1 -30 -3q-27 -7 -60 26q-12 12 -18 29 q-3 8 -5.5 18t-5 22.5t-4.5 19.5q-7 34 1 60z" />
<glyph unicode="&#x2000;" horiz-adv-x="848" />
<glyph unicode="&#x2001;" horiz-adv-x="1697" />
<glyph unicode="&#x2002;" horiz-adv-x="848" />
<glyph unicode="&#x2003;" horiz-adv-x="1697" />
<glyph unicode="&#x2004;" horiz-adv-x="565" />
<glyph unicode="&#x2005;" horiz-adv-x="424" />
<glyph unicode="&#x2006;" horiz-adv-x="282" />
<glyph unicode="&#x2007;" horiz-adv-x="282" />
<glyph unicode="&#x2008;" horiz-adv-x="212" />
<glyph unicode="&#x2009;" horiz-adv-x="339" />
<glyph unicode="&#x200a;" horiz-adv-x="94" />
<glyph unicode="&#x2010;" d="M633 367h-3q0 -1 0.5 -2.5t0.5 -2.5l2 2v3zM7 460q37 0 55 1q15 1 63.5 3.5t74.5 3.5q5 0 21 1t24 1t20.5 -1t22.5 -5q4 -2 7 0q10 7 28 6.5t28 1.5q9 4 17 -2q10 -7 36 -7q18 0 55 0.5t55 0.5q23 0 28 -2t15 2q3 1 3.5 3t0 3.5t0.5 2.5q4 5 10.5 4.5t9.5 -5.5 q25 -39 33 -53q3 -6 0 -9q-4 -6 3 -10q26 -15 40 -64q1 -5 -1.5 -14.5t-2.5 -11.5q-49 6 -96 12q-12 2 -16 -1q-12 -8 -47 -8q-97 0 -145 -1q-10 0 -21.5 -1t-25 -2.5t-21.5 -2.5l-99 -9q-5 -1 -23.5 -5.5t-29.5 -3.5q-10 1 -30 -3q-27 -7 -60 26q-12 12 -18 29 q-3 8 -5.5 18t-5 22.5t-4.5 19.5q-7 34 1 60z" />
<glyph unicode="&#x2011;" d="M633 367h-3q0 -1 0.5 -2.5t0.5 -2.5l2 2v3zM7 460q37 0 55 1q15 1 63.5 3.5t74.5 3.5q5 0 21 1t24 1t20.5 -1t22.5 -5q4 -2 7 0q10 7 28 6.5t28 1.5q9 4 17 -2q10 -7 36 -7q18 0 55 0.5t55 0.5q23 0 28 -2t15 2q3 1 3.5 3t0 3.5t0.5 2.5q4 5 10.5 4.5t9.5 -5.5 q25 -39 33 -53q3 -6 0 -9q-4 -6 3 -10q26 -15 40 -64q1 -5 -1.5 -14.5t-2.5 -11.5q-49 6 -96 12q-12 2 -16 -1q-12 -8 -47 -8q-97 0 -145 -1q-10 0 -21.5 -1t-25 -2.5t-21.5 -2.5l-99 -9q-5 -1 -23.5 -5.5t-29.5 -3.5q-10 1 -30 -3q-27 -7 -60 26q-12 12 -18 29 q-3 8 -5.5 18t-5 22.5t-4.5 19.5q-7 34 1 60z" />
<glyph unicode="&#x2012;" d="M633 367h-3q0 -1 0.5 -2.5t0.5 -2.5l2 2v3zM7 460q37 0 55 1q15 1 63.5 3.5t74.5 3.5q5 0 21 1t24 1t20.5 -1t22.5 -5q4 -2 7 0q10 7 28 6.5t28 1.5q9 4 17 -2q10 -7 36 -7q18 0 55 0.5t55 0.5q23 0 28 -2t15 2q3 1 3.5 3t0 3.5t0.5 2.5q4 5 10.5 4.5t9.5 -5.5 q25 -39 33 -53q3 -6 0 -9q-4 -6 3 -10q26 -15 40 -64q1 -5 -1.5 -14.5t-2.5 -11.5q-49 6 -96 12q-12 2 -16 -1q-12 -8 -47 -8q-97 0 -145 -1q-10 0 -21.5 -1t-25 -2.5t-21.5 -2.5l-99 -9q-5 -1 -23.5 -5.5t-29.5 -3.5q-10 1 -30 -3q-27 -7 -60 26q-12 12 -18 29 q-3 8 -5.5 18t-5 22.5t-4.5 19.5q-7 34 1 60z" />
<glyph unicode="&#x2013;" horiz-adv-x="1128" d="M988 367h-5q0 -1 1 -2.5t1 -2.5l3 2v3zM9 460q58 0 86 1q23 1 99 3.5t117 3.5q7 0 32 1t38 1t32.5 -1t34.5 -5q7 -2 11 0q16 7 44 6.5t44 1.5q14 4 26 -2q16 -7 57 -7q28 0 86 0.5t86 0.5q36 0 43.5 -2t23.5 2q5 1 5.5 3t0 3.5t0.5 2.5q7 5 17 4.5t15 -5.5q39 -39 51 -53 q5 -6 0 -9q-6 -6 5 -10q41 -15 63 -64q1 -5 -3 -14.5t-4 -11.5q-76 6 -150 12q-19 2 -25 -1q-19 -8 -73 -8q-152 0 -227 -1q-16 0 -34 -1t-39 -2.5t-34 -2.5l-155 -9q-7 -1 -36 -5.5t-46 -3.5q-16 1 -47 -3q-43 -7 -94 26q-19 12 -28 29q-5 8 -9 18t-8 22.5t-7 19.5 q-11 34 2 60z" />
<glyph unicode="&#x2014;" horiz-adv-x="2152" d="M1974 367h-9q0 -1 1.5 -2.5t1.5 -2.5l6 2v3zM15 460q116 0 172 1q47 1 199 3.5t233 3.5q16 0 66 1t75 1t64 -1t71 -5q12 -2 21 0q32 7 88 6.5t88 1.5q28 4 53 -2q31 -7 113 -7q56 0 171.5 0.5t172.5 0.5q72 0 87.5 -2t46.5 2q10 1 11.5 3t0 3.5t1.5 2.5q12 5 32.5 4.5 t29.5 -5.5q79 -39 104 -53q9 -6 0 -9q-13 -6 9 -10q81 -15 125 -64q3 -5 -4.5 -14.5t-7.5 -11.5q-154 6 -301 12q-37 2 -50 -1q-37 -8 -147 -8q-303 0 -454 -1q-31 0 -67 -1t-78 -2.5t-67 -2.5l-310 -9q-16 -1 -74 -5.5t-92 -3.5q-31 1 -94 -3q-84 -7 -188 26q-37 12 -56 29 q-9 8 -17 18t-16 22.5t-14 19.5q-22 34 3 60z" />
<glyph unicode="&#x202f;" horiz-adv-x="339" />
<glyph unicode="&#x205f;" horiz-adv-x="424" />
<glyph unicode="&#x25fc;" horiz-adv-x="870" d="M0 870h870v-870h-870v870z" />
</font>
</defs>
</svg>
